<?xml version="1.0" standalone="no"?>
<!DOCTYPE svg PUBLIC "-//W3C//DTD SVG 1.1//EN" "http://www.w3.org/Graphics/SVG/1.1/DTD/svg11.dtd" >
<svg xmlns="http://www.w3.org/2000/svg">
<metadata>
<json>
<![CDATA[
{
	"fontFamily": "icomoon",
	"description": "Font generated by IcoMoon.",
	"majorVersion": 1,
	"minorVersion": 1,
	"version": "Version 1.1",
	"fontId": "icomoon",
	"psName": "icomoon",
	"subFamily": "Regular",
	"fullName": "icomoon"
}
]]>
</json>
</metadata>
<defs>
<font id="icomoon" horiz-adv-x="1024">
<font-face units-per-em="1024" ascent="960" descent="-64" />
<missing-glyph horiz-adv-x="1024" />
<glyph unicode="&#x20;" horiz-adv-x="512" d="" />
<glyph unicode="&#xe900;" glyph-name="home" data-tags="home, house" d="M1024 369.554l-512 397.428-512-397.428v162.038l512 397.426 512-397.428zM896 384v-384h-768v384l384 288z" />
<glyph unicode="&#xe955;" glyph-name="trumpet" data-tags="trumpet, music, song, musical-instrument" d="M992 768c-17.674 0-32-14.328-32-32 0-81.372-47.27-133.116-86.924-162.196-53.56-39.276-126.848-61.804-201.076-61.804h-32v96c0 17.672-14.326 32-32 32s-32-14.328-32-32v-96h-64v96c0 17.672-14.328 32-32 32s-32-14.328-32-32v-96h-64v96c0 17.672-14.328 32-32 32s-32-14.328-32-32v-96h-256v32c0 17.672-14.328 32-32 32s-32-14.328-32-32v-192c0-17.674 14.328-32 32-32s32 14.326 32 32v32h138.982c-7.102-20.028-10.982-41.568-10.982-64 0-105.87 86.13-192 192-192h192c105.87 0 192 86.13 192 192 0 18.488-2.634 36.37-7.534 53.298 41.88-10.292 80.738-27.73 112.61-51.104 39.654-29.078 86.924-80.822 86.924-162.194 0-17.674 14.326-32 32-32s32 14.326 32 32v576c0 17.672-14.326 32-32 32zM576 256h-192c-35.29 0-64 28.71-64 64s28.71 64 64 64h192c35.29 0 64-28.71 64-64s-28.71-64-64-64z" />
<glyph unicode="&#xe970;" glyph-name="clubs" data-tags="clubs, cards, poker" d="M786.832 567.228c-59.032 0-112.086-24.596-149.852-64.694-15.996-16.984-43.762-37.112-73.8-54.81 14.11 53.868 58.676 121.7 89.628 151.456 39.64 38.17 63.984 91.83 63.984 151.5 0.006 114.894-91.476 208.096-204.788 209.32-113.32-1.222-204.796-94.426-204.796-209.318 0-59.672 24.344-113.33 63.986-151.5 30.954-29.756 75.52-97.588 89.628-151.456-30.042 17.7-57.806 37.826-73.8 54.81-37.768 40.098-90.82 64.694-149.85 64.694-114.386 0-207.080-93.664-207.080-209.328 0-115.638 92.692-209.338 207.080-209.338 59.042 0 112.082 25.356 149.85 65.452 16.804 17.872 46.444 40.138 78.292 58.632-3.002-147.692-73.532-256.168-145.318-298.906v-37.742h384.014v37.74c-71.792 42.736-142.32 151.216-145.32 298.906 31.852-18.494 61.488-40.768 78.292-58.632 37.766-40.094 90.808-65.452 149.852-65.452 114.386 0 207.078 93.7 207.078 209.338-0.002 115.664-92.692 209.328-207.080 209.328z" />
<glyph unicode="&#xe971;" glyph-name="diamonds" data-tags="diamonds, cards, poker" d="M512 960l-320-512 320-512 320 512z" />
<glyph unicode="&#xe972;" glyph-name="chess-king" data-tags="chess-king, chess" d="M974.048 694.5c-33.744 33.744-80.114 49.952-131.5 49.952-68.888 0-146.808-29.116-215.532-84.124-16.264 49.816-46.48 87.516-83.018 101.622v70.050h96v64h-96v64h-64v-64h-96v-64h96v-70.048c-36.536-14.106-66.752-51.804-83.016-101.618-68.722 55.006-146.642 84.124-215.53 84.12-51.386-0.004-97.758-16.208-131.5-49.952-87.478-87.478-57.084-259.7 67.882-384.666 23.358-23.358 48.372-43.388 74.166-59.986v-93.764c87.658-17.57 198.908-28.086 320-28.086s232.342 10.516 320 28.086v93.76c25.794 16.596 50.808 36.628 74.166 59.986 124.966 124.968 155.36 297.192 67.882 384.668zM163.092 581.356c1.078 0.72 6.846 3.096 18.362 3.098h0.016c31.85 0 87.628-18.586 140.010-70.968 34.574-34.574 59.32-76.362 67.896-114.652 6.118-27.32 1.534-41.496-0.014-43.736-1.072-0.718-6.832-3.098-18.36-3.098-31.856 0-87.644 18.588-140.030 70.972-34.576 34.578-59.324 76.37-67.896 114.66-6.116 27.312-1.532 41.482 0.016 43.724zM860.922 537.62c-8.574-38.29-33.32-80.078-67.892-114.648-52.386-52.386-108.172-70.972-140.030-70.972-11.524 0-17.288 2.376-18.36 3.096-1.546 2.238-6.132 16.408-0.018 43.724 8.572 38.292 33.32 80.082 67.896 114.66 52.384 52.384 108.174 70.972 140.030 70.972 11.528 0 17.29-2.376 18.36-3.096 1.548-2.24 6.134-16.416 0.014-43.736zM192 58.336v-94.25c87.658-17.57 198.908-28.086 320-28.086s232.342 10.516 320 28.086v94.25c-93.828-17.25-203.96-26.336-320-26.336s-226.172 9.086-320 26.336z" />
<glyph unicode="&#xe973;" glyph-name="chess-queen" data-tags="chess-queen, chess" d="M512 0c-114.588 0-225.762 9.934-313.042 27.968-2.338 0.482-4.656 0.974-6.958 1.468v-65.352c87.658-17.568 198.908-28.084 320-28.084s232.342 10.516 320 28.086v65.352c-2.302-0.494-4.62-0.986-6.958-1.468-87.278-18.036-198.452-27.97-313.042-27.97zM768 98.006v29.994l-32 64h-448l-32-64v-29.994c75.31-10.892 162.74-17.128 256-17.128 93.262-0.002 180.69 6.236 256 17.128zM1001.508 678.344c-29.994 29.994-78.622 29.994-108.614 0-25.45-25.448-29.292-64.308-11.552-93.822l-195.322-117.194 38.506 181.716c33.68-7.162 69.17 9.124 84.948 41.47 18.594 38.124 2.762 84.1-35.36 102.694-38.124 18.594-84.102 2.762-102.696-35.362-15.778-32.348-6.76-70.342 19.622-92.472l-118.208-140.696-42.202 168.806c33.41 8.326 58.17 38.522 58.17 74.512 0 42.416-34.384 76.8-76.798 76.8-42.416 0-76.8-34.384-76.8-76.8 0-35.99 24.76-66.186 58.172-74.512l-42.202-168.806-118.208 140.696c26.38 22.13 35.398 60.124 19.622 92.472-18.594 38.124-64.572 53.956-102.696 35.362-38.122-18.594-53.954-64.572-35.36-102.694 15.776-32.348 51.268-48.632 84.948-41.47l38.504-181.716-195.32 117.194c17.74 29.514 13.894 68.374-11.554 93.822-29.992 29.994-78.62 29.994-108.614 0-29.99-29.992-29.99-78.618 0.002-108.612 25.448-25.448 64.308-29.292 93.82-11.554l181.306-302.178h428.756l181.306 302.178c29.512-17.738 68.372-13.894 93.82 11.554 29.994 29.994 29.994 78.622 0.004 108.612z" />
<glyph unicode="&#xe974;" glyph-name="chess-rook" data-tags="chess-rook, chess" d="M192 672h576v-512h-576zM768 704l128 128v128h-128v-64h-192v64h-192v-64h-192v64h-128v-128l128-128h576zM768 800l-32-32h-512l-32 32h576zM128 128h704v-64h-704zM896 32h-832c0 0-49-32-64-96h960c-15 64-64 96-64 96z" />
<glyph unicode="&#xe975;" glyph-name="chess-bishop" data-tags="chess-bishop, chess" d="M793.594 192h-627.186c29.65-73.032 158.78-128 313.592-128s283.944 54.968 313.594 128zM0-64h90c0 2.58 2.804 11.226 11.14 20.118s16.442 11.882 18.86 11.882h270c53.438 1 90 63 90 96 0 0-300 0-360 0s-120-64-120-128zM840 64c-60 0-360 0-360 0 0-33 36.562-95 90-96h270c2.418 0 10.526-2.992 18.86-11.882 8.336-8.89 11.14-17.538 11.14-20.118h90c0 64-60 128-120 128zM480 256h313.594c-13.002 32.026-45.134 60.574-90.172 82.542 20.738 28.012 32.578 64.046 32.578 109.458 0 160.938-116.934 265.57-198.708 303.764 32.756 19.542 54.708 55.32 54.708 96.236 0 61.856-50.144 112-112 112s-112-50.144-112-112c0-40.916 21.952-76.694 54.708-96.236-81.774-38.194-198.708-142.826-198.708-303.764 0-45.412 11.84-81.446 32.578-109.458-45.036-21.968-77.17-50.518-90.17-82.542h313.592c0 0 0 0 0 0zM320 512v64h128v128h64v-128h128v-64h-128v-128h-64v128h-128z" />
<glyph unicode="&#xe976;" glyph-name="chess-knight" data-tags="chess-knight, chess, horse" d="M992 0h-736l-32-64h800zM567.492 448c13.448-207.898-169.532-289.514-232.668-416h625.176c0 71.594 0 185.932 0 352 0 222.34-87.072 382.854-189.912 460.14-4.746 20.186-11.918 42.486-19.908 60.608l-12.36 28.026c-14.204 32.208-44.288 36.458-66.852 9.444l-38.626-46.236c-0.282 0.002-0.566 0.018-0.85 0.018-16.468 0-31.642-0.514-45.708-1.49l-84.532 56.356c-29.29 19.526-53.252 6.702-53.252-28.498v-65.184c-25.964-14.702-47.726-32.486-72.508-51.382-64-48.798-217.852-242.132-320-357.802-94.492-107-43.45-192 46-172-4.492-84 65.508-57 114-20 111.814 85.314 361.508 45 352 192zM774.926 786.924c34.506-34.932 64.308-79.622 87.46-131.502 35.576-79.714 53.614-171.034 53.614-271.422v-288l-96 96v192c0 86.822-15.234 164.978-45.28 232.298-18.408 41.25-41.478 76.168-67.67 102.75l67.876 67.876zM160 370.744c-24.994 0-45.256 20.26-45.256 45.256 0 24.994 20.262 45.254 45.256 45.254 24.992 0 45.254-20.26 45.254-45.254 0-24.996-20.262-45.256-45.254-45.256zM481.942 672.058c-37.492-37.49-83.078-52.686-101.824-33.942-18.746 18.746-3.55 64.334 33.94 101.824s83.078 52.686 101.826 33.94c18.74-18.744 3.548-64.332-33.942-101.822z" />
<glyph unicode="&#xe977;" glyph-name="chess-pawn" data-tags="chess-pawn, chess" d="M736.020 324.040c20.366 36.73 31.98 78.986 31.98 123.96 0 103.314-61.208 192.324-149.334 232.772 32.724 29.298 53.334 71.85 53.334 119.228 0 88.366-71.634 160-160 160s-160-71.634-160-160c0-47.38 20.61-89.93 53.334-119.228-88.126-40.448-149.334-129.458-149.334-232.772 0-44.974 11.612-87.23 31.98-123.96-133.892-77.466-223.98-222.228-223.98-388.040h896c0 165.812-90.088 310.574-223.98 388.040z" />
<glyph unicode="&#xe99b;" glyph-name="file-text" data-tags="file-text, file, document, list, paper" d="M864 960h-768c-52.8 0-96-43.2-96-96v-832c0-52.8 43.2-96 96-96h768c52.8 0 96 43.2 96 96v832c0 52.8-43.2 96-96 96zM832 64h-704v768h704v-768zM256 512h448v-64h-448zM256 384h448v-64h-448zM256 256h448v-64h-448zM256 640h448v-64h-448z" />
<glyph unicode="&#xe99d;" glyph-name="file-empty" data-tags="file-empty, file, document, paper, page, new, empty, blank" d="M917.806 730.924c-22.212 30.292-53.174 65.7-87.178 99.704s-69.412 64.964-99.704 87.178c-51.574 37.82-76.592 42.194-90.924 42.194h-496c-44.112 0-80-35.888-80-80v-864c0-44.112 35.888-80 80-80h736c44.112 0 80 35.888 80 80v624c0 14.332-4.372 39.35-42.194 90.924zM785.374 785.374c30.7-30.7 54.8-58.398 72.58-81.374h-153.954v153.946c22.984-17.78 50.678-41.878 81.374-72.572zM896 16c0-8.672-7.328-16-16-16h-736c-8.672 0-16 7.328-16 16v864c0 8.672 7.328 16 16 16 0 0 495.956 0.002 496 0v-224c0-17.672 14.326-32 32-32h224v-624z" />
<glyph unicode="&#xe99e;" glyph-name="file-empty1" data-tags="file-empty, file, document, paper, page, new, empty, blank" d="M704 704h232.118c-5.008 8.070-11.036 17-18.312 26.924-22.21 30.292-53.174 65.7-87.178 99.704s-69.412 64.964-99.704 87.178c-9.924 7.276-18.854 13.304-26.924 18.312v-232.118zM640 672v288h-496c-44.112 0-80-35.888-80-80v-864c0-44.112 35.886-80 80-80h736c44.112 0 80 35.888 80 80v624h-288c-17.674 0-32 14.328-32 32z" />
<glyph unicode="&#xe9ad;" glyph-name="file-text1" data-tags="file-text, file, document, list, paper, page" d="M917.806 730.924c-22.212 30.292-53.174 65.7-87.178 99.704s-69.412 64.964-99.704 87.178c-51.574 37.82-76.592 42.194-90.924 42.194h-496c-44.112 0-80-35.888-80-80v-864c0-44.112 35.888-80 80-80h736c44.112 0 80 35.888 80 80v624c0 14.332-4.372 39.35-42.194 90.924zM785.374 785.374c30.7-30.7 54.8-58.398 72.58-81.374h-153.954v153.946c22.984-17.78 50.678-41.878 81.374-72.572zM896 16c0-8.672-7.328-16-16-16h-736c-8.672 0-16 7.328-16 16v864c0 8.672 7.328 16 16 16 0 0 495.956 0.002 496 0v-224c0-17.672 14.326-32 32-32h224v-624zM736 128h-448c-17.672 0-32 14.326-32 32s14.328 32 32 32h448c17.674 0 32-14.326 32-32s-14.326-32-32-32zM736 256h-448c-17.672 0-32 14.326-32 32s14.328 32 32 32h448c17.674 0 32-14.326 32-32s-14.326-32-32-32zM736 384h-448c-17.672 0-32 14.326-32 32s14.328 32 32 32h448c17.674 0 32-14.326 32-32s-14.326-32-32-32z" />
<glyph unicode="&#xe9ae;" glyph-name="file-text2" data-tags="file-text, file, document, list, paper, page" d="M704 704h232.118c-5.008 8.070-11.038 17-18.312 26.924-22.208 30.292-53.174 65.7-87.178 99.704s-69.412 64.964-99.704 87.178c-9.924 7.276-18.856 13.304-26.924 18.312v-232.118zM672 640c-17.676 0-32 14.328-32 32v288h-496c-44.112 0-80-35.888-80-80v-864c0-44.112 35.884-80 80-80h736c44.112 0 80 35.888 80 80v624h-288zM736 128h-448c-17.672 0-32 14.326-32 32s14.328 32 32 32h448c17.674 0 32-14.326 32-32s-14.326-32-32-32zM736 256h-448c-17.672 0-32 14.326-32 32s14.328 32 32 32h448c17.674 0 32-14.326 32-32s-14.326-32-32-32zM736 384h-448c-17.672 0-32 14.326-32 32s14.328 32 32 32h448c17.674 0 32-14.326 32-32s-14.326-32-32-32z" />
<glyph unicode="&#xe9b7;" glyph-name="copy" data-tags="copy, duplicate, clipboard" d="M864 832h-64v-64h32v-512h-256v-256h-384v768h32v64h-64c-17.602 0-32-14.4-32-32v-832c0-17.6 14.398-32 32-32h504l232 232v632c0 17.6-14.4 32-32 32zM640 0v192h192l-192-192zM768 832h-128v64c0 35.2-28.8 64-64 64h-128c-35.204 0-64-28.8-64-64v-64h-128v-128h512v128zM576 832h-128v63.886c0.034 0.038 0.072 0.078 0.114 0.114h127.768c0.042-0.036 0.082-0.076 0.118-0.114v-63.886z" />
<glyph unicode="&#xe9b8;" glyph-name="copy1" data-tags="copy, duplicate, clipboard" d="M864 832c17.6 0 32-14.4 32-32v-608l-256-256h-480c-17.602 0-32 14.4-32 32v832c0 17.6 14.398 32 32 32h64v-64h-32v-768h384v256h256v512h-32v64h64zM768 832h-128v64c0 35.2-28.8 64-64 64h-128c-35.204 0-64-28.8-64-64v-64h-128v-128h512v128zM576 832h-128v63.886c0.034 0.038 0.072 0.078 0.114 0.114h127.768c0.042-0.036 0.082-0.076 0.118-0.114v-63.886z" />
<glyph unicode="&#xea2d;" glyph-name="loop" data-tags="loop, repeat, player" d="M128 640h640v-192l256 256-256 256v-192h-768v-384h128zM896 256h-640v192l-256-256 256-256v192h768v384h-128z" />
<glyph unicode="&#xea2e;" glyph-name="loop2" data-tags="loop, repeat, player, reload, refresh, update, synchronize, arrows" d="M889.68 793.68c-93.608 102.216-228.154 166.32-377.68 166.32-282.77 0-512-229.23-512-512h96c0 229.75 186.25 416 416 416 123.020 0 233.542-53.418 309.696-138.306l-149.696-149.694h352v352l-134.32-134.32zM928 448c0-229.75-186.25-416-416-416-123.020 0-233.542 53.418-309.694 138.306l149.694 149.694h-352v-352l134.32 134.32c93.608-102.216 228.154-166.32 377.68-166.32 282.77 0 512 229.23 512 512h-96z" />
<glyph unicode="&#xea30;" glyph-name="envelop" data-tags="envelop, mail, email, contact, letter" d="M960 832h-896c-35.2 0-64-28.8-64-64v-640c0-35.2 28.8-64 64-64h896c35.2 0 64 28.8 64 64v640c0 35.2-28.8 64-64 64zM373.174 334.522l-192-139.636c-6.392-4.648-13.802-6.886-21.144-6.886-11.126 0-22.098 5.14-29.144 14.828-11.694 16.078-8.14 38.594 7.94 50.29l192 139.636c16.078 11.692 38.594 8.138 50.288-7.942s8.14-38.596-7.94-50.29zM893.116 202.826c-7.044-9.688-18.020-14.828-29.144-14.828-7.344 0-14.752 2.238-21.144 6.886l-192.006 139.64c-16.080 11.696-19.634 34.208-7.942 50.29 11.694 16.084 34.21 19.632 50.29 7.942l192.006-139.64c16.078-11.696 19.632-34.21 7.94-50.29zM885.174 642.886l-352-256c-6.31-4.592-13.742-6.886-21.174-6.886s-14.862 2.294-21.174 6.884l-352 256c-16.080 11.694-19.634 34.208-7.94 50.288 11.696 16.080 34.212 19.632 50.288 7.94l330.826-240.598 330.826 240.6c16.076 11.696 38.592 8.138 50.29-7.94 11.692-16.080 8.138-38.594-7.942-50.288z" />
<glyph unicode="&#xea31;" glyph-name="envelop1" data-tags="envelop, mail, email, contact, letter" d="M959.884 768c0.040-0.034 0.082-0.076 0.116-0.116v-639.77c-0.034-0.040-0.076-0.082-0.116-0.116h-895.77c-0.040 0.034-0.082 0.076-0.114 0.116v639.772c0.034 0.040 0.076 0.082 0.114 0.114h895.77zM960 832h-896c-35.2 0-64-28.8-64-64v-640c0-35.2 28.8-64 64-64h896c35.2 0 64 28.8 64 64v640c0 35.2-28.8 64-64 64v0zM373.174 334.522l-192-139.634c-6.392-4.65-13.802-6.888-21.144-6.888-11.126 0-22.098 5.14-29.144 14.828-11.694 16.078-8.14 38.594 7.94 50.29l192 139.636c16.078 11.692 38.594 8.136 50.288-7.942 11.694-16.080 8.14-38.598-7.94-50.29zM893.116 202.826c-7.042-9.69-18.020-14.828-29.142-14.828-7.344 0-14.752 2.238-21.144 6.884l-192.006 139.64c-16.080 11.696-19.634 34.208-7.942 50.292 11.692 16.082 34.208 19.63 50.29 7.942l192.006-139.638c16.076-11.698 19.63-34.212 7.938-50.292zM885.174 642.886l-352-256c-6.31-4.594-13.742-6.886-21.174-6.886s-14.862 2.292-21.174 6.882l-352 256c-16.080 11.694-19.634 34.208-7.94 50.288s34.212 19.632 50.288 7.94l330.826-240.596 330.826 240.6c16.076 11.696 38.592 8.138 50.29-7.94 11.692-16.080 8.138-38.594-7.942-50.288v0z" />
<glyph unicode="&#xea32;" glyph-name="envelop2" data-tags="envelop, mail, email, contact, letter" d="M960 832h-896c-35.2 0-64-28.8-64-64v-640c0-35.2 28.8-64 64-64h896c35.2 0 64 28.8 64 64v640c0 35.2-28.8 64-64 64zM896 704v-46l-384-226.286-384 226.286v46h768zM128 192v354.572l384-226.286 384 226.286v-354.572h-768z" />
<glyph unicode="&#xea33;" glyph-name="envelop3" data-tags="envelop, mail, email, contact, letter" d="M928 832h-832c-52.8 0-96-43.2-96-96v-640c0-52.8 43.2-96 96-96h832c52.8 0 96 43.2 96 96v640c0 52.8-43.2 96-96 96zM398.74 409.628l-270.74-210.892v501.642l270.74-290.75zM176.38 704h671.24l-335.62-252-335.62 252zM409.288 398.302l102.712-110.302 102.71 110.302 210.554-270.302h-626.528l210.552 270.302zM625.26 409.628l270.74 290.75v-501.642l-270.74 210.892z" />
<glyph unicode="&#xea34;" glyph-name="envelop4" data-tags="envelop, mail, email, contact, letter" d="M928 832h-832c-52.8 0-96-43.2-96-96v-576c0-52.8 43.2-96 96-96h832c52.798 0 96 43.2 96 96v576c0 52.8-43.2 96-96 96zM896 640l-384-288-384 288v64l384-192 384 192v-64z" />
<glyph unicode="&#xea36;" glyph-name="pushpin" data-tags="pushpin, pin" d="M544 960l-96-96 96-96-224-256h-224l176-176-272-360.616v-39.384h39.384l360.616 272 176-176v224l256 224 96-96 96 96-480 480zM448 416l-64 64 224 224 64-64-224-224z" />
<glyph unicode="&#xea69;" glyph-name="printer" data-tags="printer, print" d="M256 896h512v-128h-512v128zM960 704h-896c-35.2 0-64-28.8-64-64v-320c0-35.2 28.794-64 64-64h192v-256h512v256h192c35.2 0 64 28.8 64 64v320c0 35.2-28.8 64-64 64zM128 512c-35.346 0-64 28.654-64 64s28.654 64 64 64 64-28.654 64-64-28.652-64-64-64zM704 64h-384v320h384v-320z" />
<glyph unicode="&#xea84;" glyph-name="mail21" data-tags="mail, contact, support, newsletter, letter, email, envelop, social" d="M853.342 960h-682.656c-93.874 0-170.686-76.81-170.686-170.69v-682.622c0-93.938 76.812-170.688 170.686-170.688h682.656c93.876 0 170.658 76.75 170.658 170.69v682.62c0 93.88-76.782 170.69-170.658 170.69zM853.342 832c7.988 0 15.546-2.334 22.020-6.342l-363.362-300.404-363.354 300.4c6.478 4.010 14.044 6.346 22.040 6.346h682.656zM170.686 64c-1.924 0-3.82 0.146-5.684 0.408l225.626 312.966-29.256 29.254-233.372-233.37v611.138l384-464.396 384 464.394v-611.136l-233.372 233.37-29.254-29.254 225.628-312.968c-1.858-0.26-3.746-0.406-5.662-0.406h-682.654z" />
<glyph unicode="&#xea85;" glyph-name="mail31" data-tags="mail, contact, support, newsletter, letter, email, envelop, social" d="M853.342 960h-682.656c-93.874 0-170.686-76.81-170.686-170.69v-682.622c0-93.938 76.812-170.688 170.686-170.688h682.656c93.876 0 170.658 76.75 170.658 170.69v682.62c0 93.88-76.782 170.69-170.658 170.69zM182.628 73.374l-77.256 77.254 256 256 29.256-29.254-208-304zM153.372 761.372l29.256 29.256 329.372-265.374 329.374 265.374 29.254-29.256-358.628-422.626-358.628 422.626zM841.374 73.374l-208 304 29.254 29.254 256-256-77.254-77.254z" />
<glyph unicode="&#xea8b;" glyph-name="google-plus" data-tags="google-plus, brand, social" d="M325.8 502.6v-111.8h184.8c-7.4-48-55.8-140.6-184.8-140.6-111.2 0-202 92.2-202 205.8s90.8 205.8 202 205.8c63.4 0 105.6-27 129.8-50.2l88.4 85.2c-56.8 53-130.4 85.2-218.2 85.2-180.2-0.2-325.8-145.8-325.8-326s145.6-325.8 325.8-325.8c188 0 312.8 132.2 312.8 318.4 0 21.4-2.4 37.8-5.2 54h-307.6zM1024 512h-96v96h-96v-96h-96v-96h96v-96h96v96h96z" />
<glyph unicode="&#xea8c;" glyph-name="google-plus2" data-tags="google-plus, brand, social" d="M928 960h-832c-52.8 0-96-43.2-96-96v-832c0-52.8 43.2-96 96-96h832c52.8 0 96 43.2 96 96v832c0 52.8-43.2 96-96 96zM384 192c-141.6 0-256 114.4-256 256s114.4 256 256 256c69.2 0 127-25.2 171.6-67l-69.6-66.8c-19 18.2-52.2 39.4-102 39.4-87.4 0-158.8-72.4-158.8-161.6s71.4-161.6 158.8-161.6c101.4 0 139.4 72.8 145.2 110.4h-145.2v87.8h241.8c2.2-12.8 4-25.6 4-42.4 0-146.4-98-250.2-245.8-250.2zM896 448h-64v-64h-64v64h-64v64h64v64h64v-64h64v-64z" />
<glyph unicode="&#xea90;" glyph-name="facebook" data-tags="facebook, brand, social" d="M608 768h160v192h-160c-123.514 0-224-100.486-224-224v-96h-128v-192h128v-512h192v512h160l32 192h-192v96c0 17.346 14.654 32 32 32z" />
<glyph unicode="&#xea91;" glyph-name="facebook2" data-tags="facebook, brand, social" d="M928 960h-832c-52.8 0-96-43.2-96-96v-832c0-52.8 43.2-96 96-96h416v448h-128v128h128v64c0 105.8 86.2 192 192 192h128v-128h-128c-35.2 0-64-28.8-64-64v-64h192l-32-128h-160v-448h288c52.8 0 96 43.2 96 96v832c0 52.8-43.2 96-96 96z" />
<glyph unicode="&#xea96;" glyph-name="twitter" data-tags="twitter, brand, tweet, social" d="M1024 733.6c-37.6-16.8-78.2-28-120.6-33 43.4 26 76.6 67.2 92.4 116.2-40.6-24-85.6-41.6-133.4-51-38.4 40.8-93 66.2-153.4 66.2-116 0-210-94-210-210 0-16.4 1.8-32.4 5.4-47.8-174.6 8.8-329.4 92.4-433 219.6-18-31-28.4-67.2-28.4-105.6 0-72.8 37-137.2 93.4-174.8-34.4 1-66.8 10.6-95.2 26.2 0-0.8 0-1.8 0-2.6 0-101.8 72.4-186.8 168.6-206-17.6-4.8-36.2-7.4-55.4-7.4-13.6 0-26.6 1.4-39.6 3.8 26.8-83.4 104.4-144.2 196.2-146-72-56.4-162.4-90-261-90-17 0-33.6 1-50.2 3 93.2-59.8 203.6-94.4 322.2-94.4 386.4 0 597.8 320.2 597.8 597.8 0 9.2-0.2 18.2-0.6 27.2 41 29.4 76.6 66.4 104.8 108.6z" />
<glyph unicode="&#xea9b;" glyph-name="rss" data-tags="feed, rss, social" d="M136.294 209.070c-75.196 0-136.292-61.334-136.292-136.076 0-75.154 61.1-135.802 136.292-135.802 75.466 0 136.494 60.648 136.494 135.802-0.002 74.742-61.024 136.076-136.494 136.076zM0.156 612.070v-196.258c127.784 0 247.958-49.972 338.458-140.512 90.384-90.318 140.282-211.036 140.282-339.3h197.122c-0.002 372.82-303.282 676.070-675.862 676.070zM0.388 960v-196.356c455.782 0 826.756-371.334 826.756-827.644h196.856c0 564.47-459.254 1024-1023.612 1024z" />
<glyph unicode="&#xea9c;" glyph-name="rss2" data-tags="feed, rss, social" d="M928 960h-832c-52.8 0-96-43.2-96-96v-832c0-52.8 43.2-96 96-96h832c52.8 0 96 43.2 96 96v832c0 52.8-43.2 96-96 96zM279 128.8c-48 0-87 38.6-87 86.6 0 47.6 39 86.8 87 86.8 48.2 0 87-39.2 87-86.8 0-48-39-86.6-87-86.6zM497.4 128c0 81.8-31.8 158.8-89.4 216.4-57.8 57.8-134.4 89.6-216 89.6v125.2c237.6 0 431.2-193.4 431.2-431.2h-125.8zM719.6 128c0 291-236.6 528-527.4 528v125.2c360 0 653-293.2 653-653.2h-125.6z" />
<glyph unicode="&#xeaa2;" glyph-name="lanyrd" data-tags="lanyrd, brand" d="M928 960h-832c-52.8 0-96-43.2-96-96v-832c0-52.8 43.2-96 96-96h832c52.8 0 96 43.2 96 96v832c0 52.8-43.2 96-96 96zM822.4 191.2l-348.4-114c-79.6-26-87.6-21.8-123.6 89.6l-88 272.6c-21 64.6-85 238.6-95.8 272-20 62-20 65.4 97 103.4 91.6 30 95.4 29 128.6-74.4 26.8-83.2 44-150.4 71.6-235.4l75-232 239.6 78.4c47.2 15.6 63 14.8 76.4-43.4l9.6-44c11.2-51-14.6-64-42-72.8z" />
<glyph unicode="&#xeaa5;" glyph-name="undo" data-tags="undo, ccw, arrow" d="M512 896c-141.384 0-269.376-57.32-362.032-149.978l-149.968 149.978v-384h384l-143.532 143.522c69.496 69.492 165.492 112.478 271.532 112.478 212.068 0 384-171.924 384-384 0-114.696-50.292-217.636-130.018-288l84.666-96c106.302 93.816 173.352 231.076 173.352 384 0 282.77-229.23 512-512 512z" />
<glyph unicode="&#xeaa6;" glyph-name="redo" data-tags="redo, cw, arrow" d="M0 384c0-152.924 67.048-290.184 173.35-384l84.666 96c-79.726 70.364-130.016 173.304-130.016 288 0 212.076 171.93 384 384 384 106.042 0 202.038-42.986 271.53-112.478l-143.53-143.522h384v384l-149.97-149.978c-92.654 92.658-220.644 149.978-362.030 149.978-282.77 0-512-229.23-512-512z" />
<glyph unicode="&#xeaa9;" glyph-name="rotate-ccw" data-tags="rotate-ccw, ccw, arrow" d="M128 384c0 247.422 200.576 448 448 448s448-200.578 448-448c0-173.374-98.492-323.73-242.566-398.208 106.62 65.99 178.566 190.926 178.566 334.208 0 212.078-157.596 384-352 384-174.412 0-319.154-138.392-347.086-320h123.086l-192-224-192 224h128z" />
<glyph unicode="&#xeaaa;" glyph-name="rotate-cw" data-tags="rotate-cw, cw, arrow" d="M896 384c0 247.422-200.576 448-448 448s-448-200.578-448-448c0-173.374 98.492-323.73 242.566-398.208-106.62 65.99-178.566 190.926-178.566 334.208 0 212.078 157.596 384 352 384 174.412 0 319.154-138.392 347.086-320h-123.086l192-224 192 224h-128z" />
<glyph unicode="&#xeaab;" glyph-name="rotate-ccw1" data-tags="rotate-ccw, ccw, arrow" horiz-adv-x="1152" d="M704 896c-247.424 0-448-200.576-448-448h-224l288-288 288 288h-224c0 176.73 143.27 320 320 320 176.732 0 320-143.27 320-320 0-176.732-143.268-320-320-320v-128c247.424 0 448 200.576 448 448s-200.576 448-448 448z" />
<glyph unicode="&#xeaac;" glyph-name="rotate-cw1" data-tags="rotate-cw, cw, arrow" horiz-adv-x="1152" d="M448 896c247.424 0 448-200.576 448-448h224l-288-288-288 288h224c0 176.73-143.27 320-320 320-176.732 0-320-143.27-320-320 0-176.732 143.268-320 320-320v-128c-247.424 0-448 200.576-448 448s200.576 448 448 448z" />
<glyph unicode="&#xeab7;" glyph-name="blogger" data-tags="blogger, brand, social" d="M957.796 576h-57.406c-35.166 0-65.988 29.742-68.39 64v0c0.004 182.668-147.258 320-331.19 320h-167.824c-183.812 0-332.856-148-332.986-330.666v-362.798c0-182.654 149.174-330.536 332.984-330.536h358.42c183.948 0 332.596 147.882 332.596 330.536v234.382c0 36.502-29.44 75.082-66.204 75.082zM320 704h192c35.2 0 64-28.8 64-64s-28.8-64-64-64h-192c-35.2 0-64 28.8-64 64s28.8 64 64 64zM704 192h-384c-35.2 0-64 28.8-64 64s28.8 64 64 64h384c35.2 0 64-28.8 64-64s-28.8-64-64-64z" />
<glyph unicode="&#xeab8;" glyph-name="blogger2" data-tags="blogger, brand, social" d="M928 960h-832c-52.8 0-96-43.2-96-96v-832c0-52.8 43.2-96 96-96h832c52.8 0 96 43.2 96 96v832c0 52.8-43.2 96-96 96zM896 312c0-137-111.4-248-249.4-248h-268.8c-138 0-249.8 111-249.8 248v272c0 137 111.8 248 249.8 248h125.8c138 0 248.4-103 248.4-240 1.8-25.6 25-48 51.2-48h43c27.6 0 49.6-29 49.6-56.4v-175.6zM704 320c0-35.2-28.8-64-64-64h-256c-35.2 0-64 28.8-64 64v0c0 35.2 28.8 64 64 64h256c35.2 0 64-28.8 64-64v0zM576 576c0-35.2-28.8-64-64-64h-128c-35.2 0-64 28.8-64 64v0c0 35.2 28.8 64 64 64h128c35.2 0 64-28.8 64-64v0z" />
<glyph unicode="&#xeab9;" glyph-name="tumblr" data-tags="tumblr, brand, social" d="M576.032 512l-0.002-234.184c0-59.418-0.77-93.656 5.53-110.5 6.25-16.754 21.918-34.146 38.99-44.202 22.684-13.588 48.542-20.376 77.708-20.376 51.854 0 82.478 6.848 133.742 40.54v-153.944c-43.7-20.552-81.866-32.594-117.324-40.922-35.5-8.242-73.86-12.406-115.064-12.406-46.828 0-74.456 5.886-110.41 17.656-35.958 11.868-66.66 28.806-92.020 50.54-25.45 21.922-43.022 45.208-52.848 69.832-9.826 24.636-14.716 60.414-14.716 107.244v359.1h-137.426v145.006c40.208 13.042 85.164 31.788 113.78 56.152 28.754 24.45 51.766 53.706 69.106 87.944 17.392 34.146 29.348 77.712 35.872 130.516h165.084l-0.002-255.996h255.968v-192h-255.968z" />
<glyph unicode="&#xeaba;" glyph-name="tumblr2" data-tags="tumblr, brand, social" d="M928 960h-832c-52.8 0-96-43.2-96-96v-832c0-52.8 43.2-96 96-96h832c52.8 0 96 43.2 96 96v832c0 52.8-43.2 96-96 96zM731.8 135.4c-30.2-14.2-57.6-24.2-82-30-24.4-5.6-51-8.6-79.4-8.6-32.4 0-51.4 4-76.2 12.2s-46 19.8-63.6 34.8c-17.6 15.2-29.6 31.2-36.4 48.2s-10.2 41.6-10.2 74v247.8h-96v100c27.8 9 60 22 79.6 38.8 19.8 16.8 35.8 37 47.6 60.6 12 23.6 20.2 53.6 24.8 90h100.4v-163.2h163.6v-126.2h-163.4v-181.2c0-41-0.6-64.6 3.8-76.2s15.2-23.6 27-30.4c15.6-9.4 33.6-14 53.6-14 35.8 0 71.4 11.6 106.8 34.8v-111.4z" />
<glyph unicode="&#xeabf;" glyph-name="undo1" data-tags="undo, left, arrow-left" d="M761.862-64c113.726 206.032 132.888 520.306-313.862 509.824v-253.824l-384 384 384 384v-248.372c534.962 13.942 594.57-472.214 313.862-775.628z" />
<glyph unicode="&#xeac0;" glyph-name="redo1" data-tags="redo, right, arrow-right" d="M576 711.628v248.372l384-384-384-384v253.824c-446.75 10.482-427.588-303.792-313.86-509.824-280.712 303.414-221.1 789.57 313.86 775.628z" />
<glyph unicode="&#xeac2;" glyph-name="reply" data-tags="reply, left, arrow-left" d="M448 184.372v-248.372l-384 384 384 384v-253.824c446.75-10.48 427.588 303.792 313.862 509.824 280.71-303.414 221.1-789.57-313.862-775.628z" />
<glyph unicode="&#xeac6;" glyph-name="reddit" data-tags="reddit, brand, social" d="M256 320c0 35.346 28.654 64 64 64s64-28.654 64-64c0-35.346-28.654-64-64-64s-64 28.654-64 64zM640 320c0 35.346 28.654 64 64 64s64-28.654 64-64c0-35.346-28.654-64-64-64s-64 28.654-64 64zM643.112 183.222c16.482 12.986 40.376 10.154 53.364-6.332s10.152-40.378-6.334-53.366c-45.896-36.158-115.822-59.524-178.142-59.524-62.322 0-132.248 23.366-178.144 59.522-16.486 12.99-19.32 36.882-6.332 53.368 12.99 16.482 36.882 19.318 53.366 6.332 26.422-20.818 78.722-43.222 131.11-43.222s104.688 22.404 131.112 43.222zM1024 448c0 70.692-57.308 128-128 128-48.116 0-89.992-26.57-111.852-65.82-65.792 35.994-145.952 59.246-233.28 64.608l76.382 171.526 146.194-42.2c13.152-37.342 48.718-64.114 90.556-64.114 53.020 0 96 42.98 96 96s-42.98 96-96 96c-36.56 0-68.342-20.442-84.554-50.514l-162.906 47.024c-18.224 5.258-37.538-3.722-45.252-21.052l-103.77-233.026c-85.138-5.996-163.262-29.022-227.636-64.236-21.864 39.25-63.766 65.804-111.882 65.804-70.692 0-128-57.308-128-128 0-52.312 31.402-97.254 76.372-117.102-8.070-24.028-12.372-49.104-12.372-74.898 0-176.73 200.576-320 448-320 247.422 0 448 143.27 448 320 0 25.792-4.3 50.862-12.368 74.886 44.97 19.85 76.368 64.802 76.368 117.114zM864 772c19.882 0 36-16.118 36-36s-16.118-36-36-36-36 16.118-36 36 16.118 36 36 36zM64 448c0 35.29 28.71 64 64 64 25.508 0 47.572-15.004 57.846-36.646-33.448-25.366-61.166-54.626-81.666-86.738-23.524 9.47-40.18 32.512-40.18 59.384zM512 12c-205.45 0-372 109.242-372 244s166.55 244 372 244c205.45 0 372-109.242 372-244s-166.55-244-372-244zM919.82 388.616c-20.5 32.112-48.218 61.372-81.666 86.738 10.276 21.642 32.338 36.646 57.846 36.646 35.29 0 64-28.71 64-64 0-26.872-16.656-49.914-40.18-59.384z" />
<glyph unicode="&#xeac9;" glyph-name="bubbles" data-tags="bubbles, comments, chat, talk" horiz-adv-x="1152" d="M480 832c-50.666 0-99.582-7.95-145.386-23.628-42.924-14.694-81.114-35.436-113.502-61.646-60.044-48.59-93.112-110.802-93.112-175.174 0-35.99 10.066-70.948 29.92-103.898 20.686-34.34 51.898-65.794 90.26-90.958 30.44-19.968 50.936-51.952 56.362-87.95 0.902-5.99 1.63-12.006 2.18-18.032 2.722 2.52 5.424 5.114 8.114 7.794 24.138 24.040 56.688 37.312 90.322 37.312 5.348 0 10.718-0.336 16.094-1.018 19.36-2.452 39.124-3.696 58.748-3.696 50.666 0 99.58 7.948 145.384 23.628 42.926 14.692 81.116 35.434 113.504 61.644 60.046 48.59 93.112 110.802 93.112 175.174s-33.066 126.582-93.112 175.174c-32.388 26.212-70.578 46.952-113.504 61.646-45.804 15.678-94.718 23.628-145.384 23.628zM480 960v0c265.096 0 480-173.914 480-388.448s-214.904-388.448-480-388.448c-25.458 0-50.446 1.62-74.834 4.71-103.106-102.694-222.172-121.108-341.166-123.814v25.134c64.252 31.354 116 88.466 116 153.734 0 9.106-0.712 18.048-2.030 26.794-108.558 71.214-177.97 179.988-177.97 301.89 0 214.534 214.904 388.448 480 388.448zM996 89.314c0-55.942 36.314-104.898 92-131.772v-21.542c-103.126 2.318-197.786 18.102-287.142 106.126-21.14-2.65-42.794-4.040-64.858-4.040-95.47 0-183.408 25.758-253.614 69.040 144.674 0.506 281.26 46.854 384.834 130.672 52.208 42.252 93.394 91.826 122.414 147.348 30.766 58.866 46.366 121.582 46.366 186.406 0 10.448-0.45 20.836-1.258 31.168 72.57-59.934 117.258-141.622 117.258-231.676 0-104.488-60.158-197.722-154.24-258.764-1.142-7.496-1.76-15.16-1.76-22.966z" />
<glyph unicode="&#xeaca;" glyph-name="linkedin" data-tags="linkedin, brand, social" d="M928 960h-832c-52.8 0-96-43.2-96-96v-832c0-52.8 43.2-96 96-96h832c52.8 0 96 43.2 96 96v832c0 52.8-43.2 96-96 96zM384 128h-128v448h128v-448zM320 640c-35.4 0-64 28.6-64 64s28.6 64 64 64c35.4 0 64-28.6 64-64s-28.6-64-64-64zM832 128h-128v256c0 35.4-28.6 64-64 64s-64-28.6-64-64v-256h-128v448h128v-79.4c26.4 36.2 66.8 79.4 112 79.4 79.6 0 144-71.6 144-160v-288z" />
<glyph unicode="&#xeacb;" glyph-name="bubbles1" data-tags="bubbles, comments, chat, talk" horiz-adv-x="1152" d="M768 960c70.4 0 128-57.6 128-128v-320c0-70.4-57.6-128-128-128h-576l-192-192v640c0 70.4 57.6 128 128 128h640zM1024 768c70.4 0 128-57.6 128-128v-704l-192 192h-576c-70.4 0-128 57.6-128 128v64h128v-63.772c0.066-0.078 0.148-0.162 0.228-0.228h639.772v383.77c-0.066 0.080-0.15 0.164-0.228 0.23h-63.772v128h64z" />
<glyph unicode="&#xeacc;" glyph-name="bubbles2" data-tags="bubbles, comments, chat, talk" horiz-adv-x="1152" d="M1024 768c70.4 0 128-57.6 128-128v-704l-192 192h-576c-70.4 0-128 57.6-128 128v64h128v-63.772c0.066-0.078 0.148-0.162 0.228-0.228h639.772v383.77c-0.066 0.080-0.15 0.164-0.228 0.23h-63.772v128h64zM768 960h-640c-70.4 0-128-57.6-128-128v-640l192 192h576c70.4 0 128 57.6 128 128v320c0 70.4-57.6 128-128 128zM768 512.228c-0.066-0.080-0.15-0.162-0.228-0.228h-639.772v319.772c0.066 0.080 0.15 0.162 0.23 0.228h639.542c0.078-0.066 0.162-0.15 0.228-0.23v-319.542z" />
<glyph unicode="&#xeacd;" glyph-name="bubble" data-tags="bubble, comment, chat, talk" d="M836 896c103.4 0 188-84.6 188-188v-328c0-103.4-84.6-188-188-188h-644l-192-192v708c0 103.4 84.6 188 188 188h648z" />
<glyph unicode="&#xeace;" glyph-name="bubble-dots" data-tags="bubble-dots, bubble, comment, chat, talk" d="M836 896h-648c-103.4 0-188-84.6-188-188v-708l192 192h644c103.4 0 188 84.6 188 188v328c0 103.4-84.6 188-188 188zM320 448c-35.346 0-64 28.654-64 64s28.654 64 64 64 64-28.654 64-64-28.654-64-64-64zM512 448c-35.346 0-64 28.654-64 64s28.654 64 64 64 64-28.654 64-64-28.654-64-64-64zM704 448c-35.346 0-64 28.654-64 64s28.654 64 64 64 64-28.654 64-64-28.654-64-64-64z" />
<glyph unicode="&#xeacf;" glyph-name="bubble-lines" data-tags="bubble-lines, bubble, comment, chat, talk" d="M836 896h-648c-103.4 0-188-84.6-188-188v-708l192 192h644c103.4 0 188 84.6 188 188v328c0 103.4-84.6 188-188 188zM640 448h-384v64h384v-64zM768 576h-512v64h512v-64z" />
<glyph unicode="&#xead0;" glyph-name="bubble1" data-tags="bubble, comment, chat, talk" d="M836 896h-648c-103.4 0-188-84.6-188-188v-708l192 192h644c103.4 0 188 84.6 188 188v328c0 103.4-84.6 188-188 188zM896 380c0-32.524-27.476-60-60-60h-708v388c0 32.524 27.476 60 60 60h648c32.524 0 60-27.476 60-60v-328z" />
<glyph unicode="&#xead1;" glyph-name="bubble-dots1" data-tags="bubble-dots, bubble, comment, chat, talk" d="M836 896h-648c-103.4 0-188-84.6-188-188v-708l192 192h644c103.4 0 188 84.6 188 188v328c0 103.4-84.6 188-188 188zM896 380c0-32.524-27.476-60-60-60h-708v388c0 32.524 27.476 60 60 60h648c32.524 0 60-27.476 60-60v-328zM256 512c0 35.346 28.654 64 64 64s64-28.654 64-64c0-35.346-28.654-64-64-64s-64 28.654-64 64zM448 512c0 35.346 28.654 64 64 64s64-28.654 64-64c0-35.346-28.654-64-64-64s-64 28.654-64 64zM640 512c0 35.346 28.654 64 64 64s64-28.654 64-64c0-35.346-28.654-64-64-64s-64 28.654-64 64z" />
<glyph unicode="&#xead2;" glyph-name="bubble-lines1" data-tags="bubble-lines, bubble, comment, chat, talk" d="M836 896h-648c-103.4 0-188-84.6-188-188v-708l192 192h644c103.4 0 188 84.6 188 188v328c0 103.4-84.6 188-188 188zM896 380c0-32.524-27.476-60-60-60h-708v388c0 32.524 27.476 60 60 60h648c32.524 0 60-27.476 60-60v-328zM256 640h512v-64h-512zM256 512h384v-64h-384z" />
<glyph unicode="&#xead3;" glyph-name="bubble2" data-tags="bubble, comment, chat, talk, dualtone" d="M836 896h-648c-103.4 0-188-84.6-188-188v-708l192 192h644c103.4 0 188 84.6 188 188v328c0 103.4-84.6 188-188 188zM896 708v-12h-768v12c0 1.344 0.064 2.674 0.156 4h767.688c0.092-1.326 0.156-2.656 0.156-4zM895.844 376h-767.844v16h768v-12c0-1.344-0.064-2.676-0.156-4zM128 320v8h737.416c-8.752-5.064-18.812-8-29.416-8h-708zM128 344v16h764.424c-2.118-5.774-5.112-11.162-8.812-16h-755.612zM128 408v16h768v-16h-768zM128 440v16h768v-16h-768zM128 472v16h768v-16h-768zM128 504v16h768v-16h-768zM128 536v16h768v-16h-768zM128 568v16h768v-16h-768zM128 600v16h768v-16h-768zM128 632v16h768v-16h-768zM128 664v16h768v-16h-768zM836 768c10.604 0 20.664-2.936 29.418-8h-706.836c8.754 5.064 18.814 8 29.418 8h648zM883.612 744c3.704-4.838 6.696-10.226 8.812-16h-760.848c2.116 5.774 5.11 11.162 8.812 16h743.224z" />
<glyph unicode="&#xead4;" glyph-name="linkedin2" data-tags="linkedin, brand, social" d="M384 576h177.106v-90.782h2.532c24.64 44.194 84.958 90.782 174.842 90.782 186.946 0 221.52-116.376 221.52-267.734v-308.266h-184.61v273.278c0 65.184-1.334 149.026-96.028 149.026-96.148 0-110.82-70.986-110.82-144.292v-278.012h-184.542v576zM64 576h192v-576h-192v576zM256 736c0-53.019-42.981-96-96-96s-96 42.981-96 96c0 53.019 42.981 96 96 96s96-42.981 96-96z" />
<glyph unicode="&#xead6;" glyph-name="bubble3" data-tags="bubble, comment, chat, talk" d="M928 960h-832c-52.8 0-96-43.2-96-96v-640c0-52.8 43.2-96 96-96h219.428l164.572-192 164.572 192h283.428c52.8 0 96 43.2 96 96v640c0 52.8-43.198 96-96 96zM896 256h-278.298l-137.702-155.316-137.7 155.316h-214.3v576h768v-576z" />
<glyph unicode="&#xead7;" glyph-name="bubbles3" data-tags="bubbles, comments, chat, talk" d="M928 768h-640c-52.8 0-96-43.2-96-96v-448c0-52.8 43.2-96 96-96h155.428l164.572-192 164.572 192h155.428c52.8 0 96 43.2 96 96v448c0 52.8-43.198 96-96 96zM896 256h-150.298l-137.702-155.316-137.7 155.316h-150.3v384h576v-384zM128 832v-512h-32c-52.8 0-96 43.2-96 96v448c0 52.8 43.2 96 96 96h640c52.802 0 96-43.2 96-96v-32h-704z" />
<glyph unicode="&#xeadb;" glyph-name="bubble4" data-tags="bubble, comment, chat, talk" d="M928 896h-832c-52.8 0-96-43.2-96-96v-512c0-52.8 43.2-96 96-96h160v-256l307.2 256h364.8c52.8 0 96 43.2 96 96v512c0 52.8-43.2 96-96 96zM896 320h-379.142l-196.858-174.714v174.714h-192v448h768v-448z" />
<glyph unicode="&#xeadd;" glyph-name="bubble-lines2" data-tags="bubble-lines, bubble, comment, chat, talk" d="M192 704h640v-64h-640zM192 576h512v-64h-512zM192 448h256v-64h-256zM928 896h-832c-52.8 0-96-43.2-96-96v-512c0-52.8 43.2-96 96-96h160v-256l307.2 256h364.8c52.8 0 96 43.2 96 96v512c0 52.8-43.2 96-96 96zM896 320h-379.142l-196.858-174.714v174.714h-192v448h768v-448z" />
<glyph unicode="&#xeade;" glyph-name="bubbles4" data-tags="bubbles, comments, chat, talk" horiz-adv-x="1152" d="M800 960h-704c-52.8 0-96-43.2-96-96v-320c0-52.8 43.2-96 96-96h32v-256l307.2 256h364.8c52.8 0 96 43.2 96 96v320c0 52.8-43.2 96-96 96zM768 576h-379.144l-196.856-174.714v174.714h-64v256h640v-256zM1056 768c52.8 0 96-43.2 96-96v-384c0-52.8-43.2-96-96-96h-160v-256l-307.2 256h-204.8v128h251.14l196.86-174.714v174.714h192v320h-64v128h96z" />
<glyph unicode="&#xeadf;" glyph-name="bubbles5" data-tags="bubbles, comments, chat, talk" horiz-adv-x="1152" d="M800 960c52.8 0 96-43.2 96-96v-320c0-52.8-43.2-96-96-96h-364.8l-307.2-256v256h-32c-52.8 0-96 43.2-96 96v320c0 52.8 43.2 96 96 96h704zM1056 768c52.8 0 96-43.2 96-96v-384c0-52.8-43.2-96-96-96h-160v-256l-307.2 256h-204.8v128h251.14l196.86-174.714v174.714h192v320h-64v128h96z" />
<glyph unicode="&#xeae0;" glyph-name="file-pdf" data-tags="file-pdf, file, file-format" d="M842.012 370.52c-13.648 13.446-43.914 20.566-89.972 21.172-31.178 0.344-68.702-2.402-108.17-7.928-17.674 10.198-35.892 21.294-50.188 34.658-38.462 35.916-70.568 85.772-90.576 140.594 1.304 5.12 2.414 9.62 3.448 14.212 0 0 21.666 123.060 15.932 164.666-0.792 5.706-1.276 7.362-2.808 11.796l-1.882 4.834c-5.894 13.592-17.448 27.994-35.564 27.208l-10.916 0.344c-20.202 0-36.664-10.332-40.986-25.774-13.138-48.434 0.418-120.892 24.98-214.738l-6.288-15.286c-17.588-42.876-39.63-86.060-59.078-124.158l-2.528-4.954c-20.46-40.040-39.026-74.028-55.856-102.822l-17.376-9.188c-1.264-0.668-31.044-16.418-38.028-20.644-59.256-35.38-98.524-75.542-105.038-107.416-2.072-10.17-0.53-23.186 10.014-29.212l16.806-8.458c7.292-3.652 14.978-5.502 22.854-5.502 42.206 0 91.202 52.572 158.698 170.366 77.93 25.37 166.652 46.458 244.412 58.090 59.258-33.368 132.142-56.544 178.142-56.544 8.168 0 15.212 0.78 20.932 2.294 8.822 2.336 16.258 7.368 20.792 14.194 8.926 13.432 10.734 31.932 8.312 50.876-0.72 5.622-5.21 12.574-10.068 17.32zM211.646 145.952c7.698 21.042 38.16 62.644 83.206 99.556 2.832 2.296 9.808 8.832 16.194 14.902-47.104-75.124-78.648-105.066-99.4-114.458zM478.434 760.314c13.566 0 21.284-34.194 21.924-66.254s-6.858-54.56-16.158-71.208c-7.702 24.648-11.426 63.5-11.426 88.904 0 0-0.566 48.558 5.66 48.558v0zM398.852 322.506c9.45 16.916 19.282 34.756 29.33 53.678 24.492 46.316 39.958 82.556 51.478 112.346 22.91-41.684 51.444-77.12 84.984-105.512 4.186-3.542 8.62-7.102 13.276-10.65-68.21-13.496-127.164-29.91-179.068-49.862v0zM828.902 326.348c-4.152-2.598-16.052-4.1-23.708-4.1-24.708 0-55.272 11.294-98.126 29.666 16.468 1.218 31.562 1.838 45.102 1.838 24.782 0 32.12 0.108 56.35-6.072 24.228-6.18 24.538-18.734 20.382-21.332v0zM917.806 730.924c-22.21 30.292-53.174 65.7-87.178 99.704s-69.412 64.964-99.704 87.178c-51.574 37.82-76.592 42.194-90.924 42.194h-496c-44.112 0-80-35.888-80-80v-864c0-44.112 35.886-80 80-80h736c44.112 0 80 35.888 80 80v624c0 14.332-4.372 39.35-42.194 90.924v0zM785.374 785.374c30.7-30.7 54.8-58.398 72.58-81.374h-153.954v153.946c22.982-17.78 50.678-41.878 81.374-72.572v0zM896 16c0-8.672-7.328-16-16-16h-736c-8.672 0-16 7.328-16 16v864c0 8.672 7.328 16 16 16 0 0 495.956 0.002 496 0v-224c0-17.672 14.324-32 32-32h224v-624z" />
<glyph unicode="&#xeb2c;" glyph-name="spinner" data-tags="spinner, loading, loading-wheel, refresh, repeat, busy, wait, arrow" d="M1024 576h-384l143.53 143.53c-72.53 72.526-168.96 112.47-271.53 112.47s-199-39.944-271.53-112.47c-72.526-72.53-112.47-168.96-112.47-271.53s39.944-199 112.47-271.53c72.53-72.526 168.96-112.47 271.53-112.47s199 39.944 271.528 112.472c6.056 6.054 11.86 12.292 17.456 18.668l96.32-84.282c-93.846-107.166-231.664-174.858-385.304-174.858-282.77 0-512 229.23-512 512s229.23 512 512 512c141.386 0 269.368-57.326 362.016-149.984l149.984 149.984v-384z" />
<glyph unicode="&#xeb30;" glyph-name="search" data-tags="search, magnifier, magnifying-glass, inspect, find" d="M1024 96l-300.486 300.486c28.384 53.576 44.486 114.66 44.486 179.514 0 212.078-171.922 384-384 384-212.076 0-384-171.922-384-384s171.922-384 384-384c64.854 0 125.938 16.102 179.514 44.486l300.486-300.486 160 160zM128 576c0 141.384 114.616 256 256 256s256-114.616 256-256-114.616-256-256-256-256 114.616-256 256z" />
<glyph unicode="&#xeb33;" glyph-name="search1" data-tags="search, magnifier, magnifying-glass, inspect, find" d="M637.542 402.152c41.806 57.89 66.458 128.984 66.458 205.848 0 194.404-157.596 352-352 352s-352-157.596-352-352 157.596-352 352-352c76.864 0 147.958 24.652 205.848 66.458l338.152-386.458 128 128-386.458 338.152zM352 352c-141.384 0-256 114.616-256 256s114.616 256 256 256c141.382 0 256-114.616 256-256s-114.614-256-256-256z" />
<glyph unicode="&#xeb36;" glyph-name="search2" data-tags="search, magnifier, magnifying-glass, inspect, find" d="M992.262 88.604l-242.552 206.294c-25.074 22.566-51.89 32.926-73.552 31.926 57.256 67.068 91.842 154.078 91.842 249.176 0 212.078-171.922 384-384 384-212.076 0-384-171.922-384-384s171.922-384 384-384c95.098 0 182.108 34.586 249.176 91.844-1-21.662 9.36-48.478 31.926-73.552l206.294-242.552c35.322-39.246 93.022-42.554 128.22-7.356s31.892 92.898-7.354 128.22zM384 320c-141.384 0-256 114.616-256 256s114.616 256 256 256 256-114.616 256-256-114.614-256-256-256z" />
<glyph unicode="&#xeb3a;" glyph-name="search3" data-tags="search, magnifier, magnifying-glass, inspect, find" d="M320 960c176.732 0 320.002-143.27 320.002-320 0-65.24-19.542-125.908-53.064-176.502 0.010 0.014 0.020 0.030 0.030 0.044l70.36-70.36c34.872 19.222 67.694 22.816 84.442 6.070l271.528-271.528c24.994-24.996 4.732-85.782-45.254-135.77-49.988-49.984-110.772-70.246-135.764-45.254l-271.53 271.534c-16.75 16.746-13.152 49.566 6.066 84.442l-70.356 70.356c0.042 0.032 0.086 0.058 0.126 0.090-50.612-33.56-111.308-53.122-176.586-53.122-176.73 0-320 143.27-320 320s143.27 320 320 320zM138.98 458.982c48.352-48.354 112.642-74.982 181.020-74.982 68.38 0 132.668 26.628 181.022 74.982 48.352 48.352 74.978 112.64 74.978 181.018s-26.626 132.666-74.978 181.020c-48.354 48.354-112.642 74.98-181.022 74.98-68.378 0-132.668-26.628-181.020-74.98-48.352-48.354-74.98-112.64-74.98-181.020s26.628-132.666 74.98-181.018zM512 640c0-28.794-6.35-56.102-17.708-80.618-14.522 133.984-120.924 240.386-254.908 254.91 24.514 11.36 51.824 17.708 80.616 17.708 106.042 0 192-85.958 192-192z" />
<glyph unicode="&#xeb3b;" glyph-name="search4" data-tags="search, magnifier, magnifying-glass, inspect, find" d="M881.396 16.128l-254.424 373.772c-6.672 9.828-20.468 12.866-30.65 6.758l-32.138-19.336c-10.174-6.1-13.984-19.69-8.458-30.222l210.562-400.128c5.526-10.504 18.354-14.112 28.542-7.98l80.202 48.186c10.184 6.11 13.034 19.12 6.364 28.95zM592.644 427.878c96.208 61.292 100.376 221.064 9.494 363.75-77.28 121.306-194.778 185.5-287.376 164.402-21.294-4.172-48.494-15.522-75.86-32.95-27.366-17.442-49.208-37.286-61.958-54.864-58.252-75.008-49.71-208.604 27.556-329.876 90.9-142.692 237.454-206.46 333.688-145.16l54.456 34.698zM557.954 482.338c-63.492-40.43-175.456 16.974-244.506 125.408-69.072 108.392-73.782 234.126-10.28 274.586 63.444 40.434 175.438-17 244.486-125.416 69.060-108.378 73.754-234.132 10.3-274.578z" />
<glyph unicode="&#xeb5f;" glyph-name="cog1" data-tags="cog, gear, preferences, settings, generate, control, options" d="M933.79 349.75c-53.726 93.054-21.416 212.304 72.152 266.488l-100.626 174.292c-28.75-16.854-62.176-26.518-97.846-26.518-107.536 0-194.708 87.746-194.708 195.99h-201.258c0.266-33.41-8.074-67.282-25.958-98.252-53.724-93.056-173.156-124.702-266.862-70.758l-100.624-174.292c28.97-16.472 54.050-40.588 71.886-71.478 53.638-92.908 21.512-211.92-71.708-266.224l100.626-174.292c28.65 16.696 61.916 26.254 97.4 26.254 107.196 0 194.144-87.192 194.7-194.958h201.254c-0.086 33.074 8.272 66.57 25.966 97.218 53.636 92.906 172.776 124.594 266.414 71.012l100.626 174.29c-28.78 16.466-53.692 40.498-71.434 71.228zM512 240.668c-114.508 0-207.336 92.824-207.336 207.334 0 114.508 92.826 207.334 207.336 207.334 114.508 0 207.332-92.826 207.332-207.334-0.002-114.51-92.824-207.334-207.332-207.334z" />
<glyph unicode="&#xeb65;" glyph-name="cog" data-tags="cog, gear, preferences, settings, generate, control, options" d="M1024 512l-241.088 48.216 136.378 204.568-90.51 90.51-204.566-136.378-48.214 241.084h-128l-48.216-241.084-204.568 136.378-90.51-90.51 136.378-204.568-241.084-48.216v-128l241.084-48.214-136.378-204.57 90.51-90.512 204.568 136.378 48.216-241.082h128l48.214 241.084 204.566-136.376 90.51 90.512-136.376 204.566 241.086 48.214v128zM512 256c-106.040 0-192 85.96-192 192s85.96 192 192 192 192-85.96 192-192-85.96-192-192-192z" />
<glyph unicode="&#xeb99;" glyph-name="rating" data-tags="rating, ranking, rate, standing" d="M64 128v-128l448 224 448-224v128l-448 224z" />
<glyph unicode="&#xeb9a;" glyph-name="rating1" data-tags="rating, ranking, rate, standing" d="M64 128v-128l448 224 448-224v128l-448 224zM64 384v-128l448 224 448-224v128l-448 224z" />
<glyph unicode="&#xeb9b;" glyph-name="rating2" data-tags="rating, ranking, rate, standing" d="M64 128v-128l448 224 448-224v128l-448 224zM64 384v-128l448 224 448-224v128l-448 224zM512 864l-448-224v-128l448 224 448-224v128z" />
<glyph unicode="&#xeba5;" glyph-name="crown" data-tags="crown, king" d="M256 192h512v-128h-512zM960 768c-35.346 0-64-28.654-64-64 0-13.134 3.962-25.34 10.75-35.5l-234.75-156.5-24.062 192.508c31.598 3.91 56.062 30.834 56.062 63.492 0 35.346-28.654 64-64 64s-64-28.654-64-64c0-25.056 14.406-46.734 35.378-57.242l-99.378-198.758-99.378 198.758c20.972 10.508 35.378 32.186 35.378 57.242 0 35.346-28.654 64-64 64s-64-28.654-64-64c0-32.658 24.464-59.582 56.064-63.492l-24.064-192.508-234.748 156.5c6.786 10.158 10.748 22.366 10.748 35.5 0 35.346-28.654 64-64 64s-64-28.654-64-64 28.654-64 64-64c8.956 0 17.476 1.846 25.214 5.166l166.786-389.166h512l166.786 389.166c7.738-3.32 16.26-5.166 25.214-5.166 35.346 0 64 28.654 64 64s-28.654 64-64 64z" />
<glyph unicode="&#xebf6;" glyph-name="lamp" data-tags="lamp, light, idea, tip, bulb" d="M512 960c-212.078 0-384-171.922-384-384 0-142.132 77.226-266.218 192-332.618v-243.382l64-64h256l64 64v243.382c114.776 66.398 192 190.484 192 332.618 0 212.078-171.922 384-384 384zM320 640c0 35.346 28.654 64 64 64s64-28.654 64-64v-288c0-17.674-14.326-32-32-32s-32 14.326-32 32v224c-35.346 0-64 28.654-64 64zM608 128h-192c-17.6 0-32 14.4-32 32s14.4 32 32 32h192c17.6 0 32-14.4 32-32s-14.4-32-32-32zM640 576v-224c0-17.674-14.326-32-32-32s-32 14.326-32 32v288c0 35.346 28.652 64 64 64s64-28.654 64-64-28.652-64-64-64zM608 0h-192c-17.6 0-32 14.4-32 32s14.4 32 32 32h192c17.6 0 32-14.4 32-32s-14.4-32-32-32z" />
<glyph unicode="&#xebf7;" glyph-name="lamp1" data-tags="lamp, light, idea, tip, bulb" d="M896 576c0 212.078-171.922 384-384 384s-384-171.922-384-384c0-142.132 77.226-266.218 192-332.618v-243.382l64-64h256l64 64v243.382c114.776 66.4 192 190.486 192 332.618zM608 128h-192c-17.6 0-32 14.4-32 32s14.4 32 32 32h192c17.6 0 32-14.4 32-32s-14.4-32-32-32zM640 282.542v293.458c35.348 0 64 28.654 64 64s-28.652 64-64 64-64-28.654-64-64v-377.624c-20.84-4.208-42.254-6.376-64-6.376-21.748 0-43.16 2.166-64 6.376v377.624c0 35.346-28.654 64-64 64s-64-28.654-64-64 28.654-64 64-64v-293.458c-36.206 15.802-69.5 38.406-98.274 67.18-60.44 60.444-93.726 140.802-93.726 226.278 0 85.474 33.286 165.834 93.726 226.274s140.8 93.726 226.274 93.726c85.472 0 165.834-33.286 226.276-93.726 60.438-60.44 93.724-140.798 93.724-226.274s-33.286-165.834-93.724-226.278c-28.776-28.768-62.068-51.374-98.276-67.18zM608 0h-192c-17.6 0-32 14.4-32 32s14.4 32 32 32h192c17.6 0 32-14.4 32-32s-14.4-32-32-32z" />
<glyph unicode="&#xebf8;" glyph-name="lamp2" data-tags="lamp, light, idea, tip, bulb, dualtone" d="M512 960c-212.078 0-384-171.922-384-384 0-142.132 77.226-266.218 192-332.618v-243.382l64-64h256l64 64v243.382c114.776 66.398 192 190.484 192 332.618 0 212.078-171.922 384-384 384zM448 280v16h128v-16h-128zM576 264v-1.624c-20.84-4.208-42.254-6.376-64-6.376-21.748 0-43.16 2.166-64 6.376v1.624h128zM448 312v16h128v-16h-128zM448 344v16h128v-16h-128zM448 376v16h128v-16h-128zM448 408v16h128v-16h-128zM448 440v16h128v-16h-128zM448 472v16h128v-16h-128zM448 504v16h128v-16h-128zM448 536v16h128v-16h-128zM448 568v16h128v-16h-128zM448 600v16h128v-16h-128zM448 632v8c0 2.71-0.188 5.376-0.516 8h129.032c-0.328-2.624-0.516-5.29-0.516-8v-8h-128zM580.67 664h-137.34c0-0.002 0.002-0.006 0.002-0.008-2.352 5.812-5.53 11.196-9.394 16.012 0-0.002 0.002-0.002 0.004-0.004h156.112c-3.854-4.814-7.032-10.194-9.384-16zM579.272 660.198c-0.008-0.022-0.016-0.044-0.024-0.068 0.008 0.022 0.016 0.044 0.024 0.068zM444.752 660.126c-0.008 0.026-0.018 0.050-0.026 0.078 0.008-0.026 0.018-0.052 0.026-0.078zM414.986 696c0.006-0.004 0.012-0.008 0.020-0.012-9.188 5.098-19.756 8.012-31.006 8.012s-21.818-2.914-31.004-8.012c0.006 0.004 0.012 0.008 0.020 0.012h-137.826c4.416 10.926 9.436 21.604 15.056 31.99-2.846-5.258-5.544-10.588-8.082-15.99h579.676c2.474-5.268 4.792-10.606 6.972-16h-137.826c0.008-0.004 0.018-0.010 0.026-0.014-9.188 5.1-19.758 8.014-31.012 8.014s-21.824-2.914-31.012-8.014c0.008 0.004 0.018 0.010 0.026 0.014h-194.028zM606.328 694.422c-0.028-0.016-0.054-0.036-0.082-0.052 0.028 0.018 0.054 0.036 0.082 0.052zM603.714 692.714c-0.034-0.022-0.062-0.046-0.094-0.068 0.032 0.022 0.064 0.046 0.094 0.068zM601.192 690.878c-0.030-0.022-0.054-0.042-0.082-0.064 0.022 0.022 0.052 0.044 0.082 0.064zM598.752 688.92c-0.014-0.012-0.030-0.024-0.042-0.038 0.012 0.014 0.028 0.026 0.042 0.038zM596.412 686.844c-0.002-0.002-0.004-0.002-0.006-0.004 0.002 0.002 0.004 0.002 0.006 0.004zM431.936 682.382c0 0 0 0.002 0 0 0 0.002 0 0 0 0zM429.822 684.66c-0.002 0.002-0.006 0.006-0.008 0.008 0.002-0.002 0.004-0.004 0.008-0.008zM427.608 686.826c-0.008 0.008-0.018 0.016-0.026 0.024 0.008-0.008 0.016-0.016 0.026-0.024zM425.304 688.872c-0.020 0.018-0.040 0.036-0.060 0.052 0.020-0.018 0.040-0.036 0.060-0.052zM422.902 690.806c-0.032 0.024-0.064 0.050-0.096 0.076 0.032-0.026 0.064-0.052 0.096-0.076zM420.378 692.646c-0.032 0.022-0.064 0.046-0.096 0.068 0.034-0.022 0.064-0.046 0.096-0.068zM417.748 694.374c-0.026 0.016-0.050 0.032-0.076 0.048 0.026-0.016 0.050-0.032 0.076-0.048zM320.516 632h-123.654c-0.462-2.636-0.894-5.28-1.292-7.932 1.208 8.056 2.724 16.038 4.53 23.932h120.416c-0.328-2.624-0.516-5.29-0.516-8s0.188-5.376 0.516-8zM204.208 664c-0.744-2.614-1.454-5.24-2.132-7.876 2.774 10.806 6.114 21.432 9.998 31.85-0.986-2.644-1.936-5.302-2.852-7.974h124.834c0 0.002 0.002 0.002 0.004 0.004-3.864-4.816-7.042-10.202-9.394-16.012 0 0.002 0.002 0.004 0.002 0.008h-120.46zM323.274 660.204c-0.008-0.026-0.018-0.050-0.026-0.078 0.008 0.026 0.018 0.052 0.026 0.078zM200.118 648.076c0.608 2.652 1.25 5.292 1.924 7.92-0.674-2.628-1.316-5.268-1.924-7.92zM350.328 694.422c-0.026-0.016-0.050-0.032-0.076-0.048 0.026 0.016 0.050 0.032 0.076 0.048zM347.716 692.714c-0.032-0.022-0.064-0.046-0.096-0.068 0.034 0.022 0.064 0.046 0.096 0.068zM345.194 690.88c-0.034-0.024-0.064-0.050-0.096-0.076 0.032 0.026 0.064 0.052 0.096 0.076zM342.756 688.924c-0.020-0.018-0.040-0.036-0.060-0.052 0.020 0.016 0.040 0.034 0.060 0.052zM340.418 686.85c-0.008-0.008-0.016-0.016-0.026-0.024 0.010 0.008 0.018 0.016 0.026 0.024zM338.186 684.668c-0.002-0.002-0.006-0.006-0.008-0.008 0.004 0.004 0.006 0.006 0.008 0.008zM336.066 682.384c-0.002 0-0.002-0.002 0 0-0.002-0.002-0.002 0 0 0zM212.12 688.098c0.988 2.646 2.008 5.278 3.066 7.896-1.058-2.618-2.080-5.25-3.066-7.896zM700.752 619.87c-0.008-0.022-0.016-0.044-0.024-0.068 0.008 0.024 0.016 0.046 0.024 0.068zM700.728 660.198c0.008-0.022 0.016-0.044 0.024-0.068-0.008 0.022-0.016 0.044-0.024 0.068zM699.33 616h130.206c-0.664 5.358-1.462 10.684-2.39 15.978 1.848-10.534 3.182-21.202 3.974-31.978h-141.176c3.858 4.814 7.034 10.194 9.386 16v0zM703.484 632c0.328 2.624 0.516 5.29 0.516 8s-0.188 5.376-0.516 8h120.416c1.208-5.296 2.292-10.628 3.238-16h-123.654zM699.33 664c-2.352 5.806-5.528 11.186-9.386 16h124.836c1.808-5.284 3.482-10.618 5.014-16h-120.464zM819.792 663.992c0.746-2.626 1.462-5.264 2.14-7.912-0.676 2.648-1.39 5.286-2.14 7.912zM821.954 656.014c0.684-2.662 1.334-5.332 1.95-8.012-0.618 2.682-1.268 5.352-1.95 8.012zM808.82 695.98c1.048-2.602 2.066-5.218 3.046-7.848-0.98 2.63-1.994 5.244-3.046 7.848zM811.944 687.932c0.972-2.614 1.912-5.238 2.816-7.876-0.904 2.638-1.844 5.264-2.816 7.876zM683.594 686.84c-0.002 0.002-0.004 0.002-0.006 0.004 0.002-0.002 0.004-0.002 0.006-0.004zM681.292 688.882c-0.018 0.012-0.032 0.026-0.042 0.038 0.012-0.012 0.026-0.024 0.042-0.038zM678.892 690.814c-0.030 0.022-0.054 0.042-0.082 0.064 0.028-0.020 0.056-0.042 0.082-0.064zM676.378 692.646c-0.034 0.022-0.062 0.042-0.098 0.068 0.036-0.022 0.068-0.046 0.098-0.068zM673.754 694.372c-0.028 0.016-0.054 0.036-0.082 0.052 0.028-0.018 0.054-0.036 0.082-0.052zM640 392h133.91c-3.844-5.446-7.886-10.774-12.086-16h-121.824v16zM640 424h153.75c2.846 5.258 5.542 10.584 8.082 15.986-5.154-10.964-10.958-21.638-17.364-31.986h-144.468v16zM640 440v16h168.812c-2.18-5.394-4.498-10.732-6.972-16h-161.84zM640 472v16h179.792c-1.534-5.382-3.208-10.716-5.016-16h-174.776zM814.762 471.95c-0.906-2.642-1.846-5.272-2.822-7.888 0.974 2.616 1.916 5.244 2.822 7.888zM811.872 463.874c-0.982-2.634-2.002-5.256-3.052-7.864 1.050 2.608 2.066 5.228 3.052 7.864zM640 504v16h187.138c-1.42-8.092-3.156-16.1-5.188-24.016 0.686 2.662 1.334 5.334 1.95 8.016h-183.9zM821.938 495.924c-0.68-2.65-1.394-5.29-2.14-7.918 0.744 2.628 1.458 5.268 2.14 7.918zM640 536v16h191.12c-0.792-10.776-2.126-21.444-3.974-31.978 0.928 5.292 1.726 10.62 2.39 15.978h-189.536zM640 568v8c11.254 0 21.824 2.914 31.012 8.014-0.008-0.004-0.018-0.010-0.026-0.014h160.916c-0.066 2.678-0.164 5.35-0.294 8.016 0.264-5.316 0.392-10.656 0.392-16.016s-0.128-10.7-0.392-16.016c0.13 2.666 0.228 5.338 0.294 8.016h-191.902zM831.596 559.764c-0.126-2.582-0.286-5.16-0.474-7.73 0.188 2.572 0.344 5.148 0.474 7.73zM683.594 593.16c-0.002-0.002-0.004-0.002-0.006-0.004 0.002 0.002 0.004 0.002 0.006 0.004zM681.292 591.118c-0.018-0.012-0.032-0.026-0.042-0.038 0.012 0.012 0.026 0.024 0.042 0.038zM678.892 589.186c-0.030-0.022-0.054-0.042-0.082-0.064 0.028 0.020 0.056 0.042 0.082 0.064zM676.378 587.354c-0.034-0.022-0.062-0.042-0.098-0.068 0.036 0.022 0.068 0.046 0.098 0.068zM673.754 585.628c-0.028-0.016-0.054-0.036-0.082-0.052 0.028 0.018 0.054 0.036 0.082 0.052zM831.122 599.964c0.192-2.57 0.348-5.148 0.474-7.73-0.13 2.584-0.286 5.16-0.474 7.73zM784.444 744.040c-1.614 2.604-3.264 5.188-4.952 7.75 1.692-2.562 3.338-5.146 4.952-7.75zM692.958 840c-4.174 2.874-8.406 5.644-12.7 8.306 14.882-9.234 29.078-19.744 42.45-31.476-2.78 2.438-5.586 4.836-8.436 7.17h-404.546c6.906 5.654 14.022 10.978 21.314 16h361.918zM331.048 840.004c2.086 1.438 4.188 2.848 6.306 4.234-2.116-1.386-4.22-2.796-6.306-4.234zM337.362 844.242c2.11 1.38 4.234 2.734 6.374 4.062-2.14-1.328-4.266-2.682-6.374-4.062zM343.802 848.344c2.124 1.318 4.26 2.61 6.412 3.874-2.15-1.264-4.288-2.556-6.412-3.874zM350.316 852.278c12.904 7.582 26.288 14.23 40.082 19.894-0.142-0.058-0.286-0.112-0.426-0.17h244.058c13.644-5.624 26.886-12.22 39.658-19.724-2.156 1.268-4.328 2.51-6.512 3.724h-310.352c-2.184-1.216-4.352-2.458-6.508-3.724zM673.784 852.22c2.156-1.266 4.296-2.56 6.424-3.88-2.128 1.32-4.268 2.614-6.424 3.88zM732.338 808.060c-2.636 2.506-5.32 4.948-8.028 7.352 2.708-2.406 5.392-4.846 8.028-7.352zM627.848 874.472c-1.198 0.464-2.404 0.906-3.608 1.356 1.204-0.45 2.41-0.892 3.608-1.356zM621.14 876.98c-1.254 0.454-2.516 0.89-3.778 1.33 1.262-0.44 2.524-0.876 3.778-1.33zM614.406 879.326c-1.304 0.438-2.614 0.868-3.922 1.29 1.308-0.422 2.618-0.852 3.922-1.29zM607.682 881.502c-1.368 0.426-2.736 0.848-4.112 1.256 1.376-0.408 2.744-0.83 4.112-1.256zM601.046 883.488c-1.468 0.424-2.938 0.848-4.414 1.25 1.478-0.402 2.946-0.826 4.414-1.25zM595.118 885.138c-3.782 1.008-7.578 1.958-11.402 2.83 3.824-0.872 7.62-1.822 11.402-2.83zM583.578 888h-143.156c23.214 5.278 47.186 8 71.578 8 24.39 0 48.364-2.722 71.578-8zM396.148 874.47c1.208 0.468 2.426 0.914 3.64 1.368-1.214-0.454-2.432-0.9-3.64-1.368zM402.854 876.976c1.26 0.458 2.528 0.896 3.794 1.336-1.268-0.438-2.534-0.88-3.794-1.336zM409.586 879.324c1.31 0.44 2.622 0.872 3.938 1.294-1.314-0.424-2.628-0.854-3.938-1.294zM416.306 881.498c1.374 0.428 2.75 0.852 4.128 1.262-1.378-0.41-2.754-0.834-4.128-1.262zM422.934 883.484c1.478 0.426 2.956 0.852 4.44 1.256-1.486-0.404-2.962-0.83-4.44-1.256zM428.836 885.124c3.814 1.020 7.65 1.978 11.506 2.856-3.856-0.876-7.69-1.836-11.506-2.856zM299.69 815.412c-2.728-2.424-5.432-4.884-8.090-7.412h440.802c1.976-1.88 3.936-3.788 5.874-5.726 3.364-3.36 6.624-6.792 9.816-10.274h-472.182c-4.77-5.204-9.344-10.542-13.732-16h499.644c-4.38 5.452-8.954 10.784-13.712 15.98 11.494-12.542 21.884-25.84 31.124-39.792-1.734 2.628-3.506 5.234-5.326 7.812h-523.816c-1.814-2.572-3.582-5.17-5.312-7.79 11.806 17.826 25.48 34.6 40.944 50.064 4.542 4.54 9.208 8.908 13.966 13.138v0zM309.722 823.996c-2.846-2.33-5.65-4.728-8.426-7.164 2.776 2.438 5.58 4.834 8.426 7.164zM244.476 751.74c-1.682-2.56-3.332-5.14-4.942-7.74h544.936c6.404-10.346 12.208-21.016 17.36-31.978-2.538 5.398-5.234 10.724-8.078 15.978h-563.5c4.38 8.098 9.128 16.018 14.224 23.74v0zM195.562 624.020c-0.398-2.652-0.762-5.312-1.094-7.982 0.332 2.67 0.698 5.33 1.094 7.982zM194.464 616h130.206c0 0.002-0.002 0.006-0.002 0.008 2.352-5.812 5.53-11.196 9.394-16.012 0 0.002-0.002 0.002-0.004 0.004h-141.176c-0.392-5.308-0.654-10.644-0.784-16h160.916c-0.006 0.004-0.012 0.008-0.020 0.012 9.188-5.098 19.756-8.012 31.006-8.012v-8h-191.902c0.13-5.356 0.392-10.692 0.784-16h191.118v-16h-189.536c0.666-5.366 1.468-10.7 2.398-16h187.138v-16h-183.9c-5.342 23.346-8.1 47.46-8.1 72 0 13.48 0.832 26.832 2.464 40zM323.248 619.874c0.008-0.026 0.018-0.050 0.026-0.078-0.008 0.026-0.018 0.052-0.026 0.078zM336.064 597.618c0 0 0-0.002 0 0 0-0.002 0 0 0 0zM338.178 595.34c0.002-0.002 0.006-0.006 0.008-0.008-0.002 0.002-0.004 0.004-0.008 0.008zM340.392 593.174c0.008-0.008 0.018-0.016 0.026-0.024-0.008 0.008-0.016 0.016-0.026 0.024zM342.696 591.128c0.020-0.018 0.040-0.036 0.060-0.052-0.020 0.018-0.040 0.036-0.060 0.052zM345.098 589.194c0.032-0.024 0.064-0.050 0.096-0.076-0.032 0.026-0.064 0.052-0.096 0.076zM347.622 587.354c0.032-0.022 0.064-0.046 0.096-0.068-0.034 0.022-0.064 0.046-0.096 0.068zM350.252 585.626c0.026-0.016 0.050-0.032 0.076-0.048-0.026 0.016-0.050 0.032-0.076 0.048zM384 488v-16h-174.778c-1.81 5.284-3.484 10.618-5.014 16h179.792zM204.202 488.020c-0.742 2.614-1.454 5.236-2.13 7.872 0.678-2.634 1.386-5.258 2.13-7.872zM202.044 495.996c-0.678 2.644-1.326 5.3-1.934 7.966 0.61-2.666 1.256-5.322 1.934-7.966zM212.118 463.906c0.988-2.648 2.010-5.284 3.070-7.906h168.812v-16h-161.838c2.54-5.406 5.242-10.738 8.088-16h153.75v-16h-144.468c1.606-2.596 3.252-5.17 4.932-7.726-13.196 20.004-24.022 41.33-32.346 63.632v0zM209.224 471.994c0.914-2.67 1.866-5.328 2.85-7.97-0.986 2.642-1.936 5.298-2.85 7.97zM384 392v-16h-121.824c-6.182 7.696-11.988 15.624-17.392 23.786 1.728-2.62 3.494-5.214 5.306-7.786h133.91zM262.186 375.988c4.384-5.458 8.956-10.79 13.722-15.988h108.092v-16h-92.398c2.812-2.674 5.67-5.282 8.562-7.838-4.924 4.36-9.748 8.87-14.44 13.56-8.38 8.382-16.218 17.156-23.538 26.266zM300.786 335.61c2.948-2.594 5.934-5.13 8.96-7.61h74.254v-16h-52.968c6.246-4.296 12.624-8.364 19.128-12.19-17.422 10.244-33.948 22.21-49.374 35.8zM384 296v-13.458c-11.564 5.044-22.826 10.792-33.744 17.208 2.174-1.278 4.362-2.528 6.562-3.752l27.182 0.002zM608 128h-192c-17.6 0-32 14.4-32 32s14.4 32 32 32h192c17.6 0 32-14.4 32-32s-14.4-32-32-32zM640 296h27.178c2.202 1.222 4.384 2.472 6.556 3.748-10.914-6.412-22.174-12.158-33.734-17.206v13.458zM673.878 299.836c6.486 3.818 12.854 7.876 19.086 12.164h-52.964v16h74.252c-12.802-10.476-26.294-19.882-40.374-28.164zM714.252 328c3.028 2.478 6.016 5.018 8.964 7.614-2.946-2.598-5.936-5.136-8.964-7.614zM723.83 336.158c2.876 2.544 5.724 5.138 8.524 7.798-2.8-2.66-5.646-5.248-8.524-7.798zM732.398 344h-92.398v16h108.094c-3.194-3.482-6.458-6.916-9.818-10.278-1.938-1.936-3.9-3.844-5.878-5.722zM761.812 375.986c-4.38-5.452-8.95-10.784-13.708-15.976 4.762 5.198 9.328 10.526 13.708 15.976zM779.548 400.292c1.674 2.544 3.31 5.112 4.912 7.696-1.598-2.584-3.234-5.15-4.912-7.696zM773.922 392.018c1.806 2.56 3.566 5.148 5.29 7.756-1.728-2.606-3.484-5.196-5.29-7.756zM608 0h-192c-17.6 0-32 14.4-32 32s14.4 32 32 32h192c17.6 0 32-14.4 32-32s-14.4-32-32-32z" />
<glyph unicode="&#xebf9;" glyph-name="lamp3" data-tags="lamp, light, idea, tip, bulb" d="M320 320c-0.25-106.040 85.962-128 192-128 106.040 0 191.75 21.96 192 128s127.75 143.268 128 320-143.27 320-320 320c-176.732 0-319.75-143.268-320-320s128.25-213.96 128-320zM512 128c-78.986 0-144.596 17.554-157.636 97.008-1.548-10.724-2.364-21.752-2.364-33.008 0-106.040 71.634-128 160-128s160 21.96 160 128c0 11.256-0.816 22.284-2.364 33.008-13.042-79.454-78.65-97.008-157.636-97.008zM512 0c-63.188 0-115.676 17.554-126.108 97.008-1.24-10.724-1.892-21.752-1.892-33.008 0-106.040 57.308-128 128-128 70.694 0 128 21.96 128 128 0 11.256-0.652 22.284-1.89 33.008-10.434-79.454-62.92-97.008-126.11-97.008z" />
<glyph unicode="&#xebfa;" glyph-name="lamp4" data-tags="lamp, light, idea, tip, bulb" d="M512 896c68.51 0 132.896-26.696 181.302-75.17 48.266-48.334 74.792-112.522 74.698-180.738-0.112-78.708-31.016-120.828-63.734-165.422-30.048-40.954-64.108-87.372-64.266-154.518-0.076-32.636-11.276-41.41-22.738-47.602-20.336-10.982-55.752-16.55-105.262-16.55-76.074 0-105.296 13.286-116.416 24.432-2.88 2.888-11.65 11.678-11.584 39.416 0.16 67.41-34.11 113.942-64.346 154.996-32.792 44.524-63.764 86.578-63.654 165.066 0.098 68.45 26.764 132.774 75.086 181.122 48.318 48.344 112.568 74.968 180.914 74.968zM512 960c-176.732 0-319.75-143.268-320-320s128.25-213.96 128-320 85.962-128 192-128c106.040 0 191.75 21.96 192 128s127.75 143.268 128 320-143.27 320-320 320v0zM512 128c-78.986 0-144.596 17.554-157.636 97.008-1.548-10.724-2.364-21.752-2.364-33.008 0-106.040 71.634-128 160-128s160 21.96 160 128c0 11.256-0.816 22.284-2.364 33.008-13.042-79.454-78.65-97.008-157.636-97.008zM512 0c-63.188 0-115.676 17.554-126.108 97.008-1.24-10.724-1.892-21.752-1.892-33.008 0-106.040 57.308-128 128-128 70.694 0 128 21.96 128 128 0 11.256-0.652 22.284-1.89 33.008-10.434-79.454-62.92-97.008-126.11-97.008z" />
<glyph unicode="&#xec33;" glyph-name="shield-notice" data-tags="shield-notice, security, defense, protection, anti virus" d="M879.324 764.092l-351.996 192c-4.774 2.606-10.048 3.908-15.322 3.908-5.276 0-10.548-1.302-15.326-3.908l-352.004-192c-10.28-5.606-16.676-16.382-16.676-28.092v-256c0-140.79 36.31-254.618 111.012-347.99 58.364-72.956 138.144-132.366 258.68-192.628 4.504-2.252 9.408-3.378 14.31-3.378s9.804 1.126 14.308 3.378c120.536 60.268 200.31 119.678 258.674 192.628 74.704 93.372 111.016 207.2 111.016 347.99l0.002 256c0 11.71-6.396 22.486-16.678 28.092zM576 128h-128v128h128v-128zM576 320h-128v448h128v-448z" />
<glyph unicode="&#xec50;" glyph-name="clipboard" data-tags="clipboard, board" d="M928 832h-288c0 70.692-57.306 128-128 128-70.692 0-128-57.308-128-128h-288c-17.672 0-32-14.328-32-32v-832c0-17.674 14.328-32 32-32h832c17.674 0 32 14.326 32 32v832c0 17.672-14.326 32-32 32zM512 896c35.346 0 64-28.654 64-64s-28.654-64-64-64c-35.346 0-64 28.654-64 64s28.654 64 64 64zM896 0h-768v768h128v-96c0-17.672 14.328-32 32-32h448c17.674 0 32 14.328 32 32v96h128v-768z" />
<glyph unicode="&#xec51;" glyph-name="clipboard1" data-tags="clipboard, board, signup, register, agreement" d="M928 832h-288c0 70.692-57.306 128-128 128-70.692 0-128-57.308-128-128h-288c-17.672 0-32-14.328-32-32v-832c0-17.674 14.328-32 32-32h832c17.674 0 32 14.326 32 32v832c0 17.672-14.326 32-32 32zM512 896c35.346 0 64-28.654 64-64s-28.654-64-64-64c-35.346 0-64 28.654-64 64s28.654 64 64 64zM896 0h-768v768h128v-96c0-17.672 14.328-32 32-32h448c17.674 0 32 14.328 32 32v96h128v-768zM448 101.49l-205.254 237.254 58.508 58.51 146.746-114.744 274.742 242.744 58.514-58.508z" />
<glyph unicode="&#xec52;" glyph-name="clipboard2" data-tags="clipboard, board, list" d="M928 832h-288c0 70.692-57.306 128-128 128-70.692 0-128-57.308-128-128h-288c-17.672 0-32-14.328-32-32v-832c0-17.674 14.328-32 32-32h832c17.674 0 32 14.326 32 32v832c0 17.672-14.326 32-32 32zM512 896c35.346 0 64-28.654 64-64s-28.654-64-64-64c-35.346 0-64 28.654-64 64s28.654 64 64 64zM896 0h-768v768h128v-96c0-17.672 14.328-32 32-32h448c17.674 0 32 14.328 32 32v96h128v-768zM736 384h-448c-17.672 0-32 14.328-32 32s14.328 32 32 32h448c17.674 0 32-14.328 32-32s-14.326-32-32-32zM736 256h-448c-17.672 0-32 14.326-32 32s14.328 32 32 32h448c17.674 0 32-14.326 32-32s-14.326-32-32-32zM736 128h-448c-17.672 0-32 14.326-32 32s14.328 32 32 32h448c17.674 0 32-14.326 32-32s-14.326-32-32-32z" />
<glyph unicode="&#xec53;" glyph-name="clipboard3" data-tags="clipboard, board" d="M256 704h512v128h-128c0 70.692-57.306 128-128 128-70.692 0-128-57.308-128-128h-128v-128zM512 896c35.346 0 64-28.654 64-64s-28.654-64-64-64c-35.346 0-64 28.654-64 64s28.654 64 64 64zM928 832h-96v-160c0-17.672-14.326-32-32-32h-576c-17.672 0-32 14.328-32 32v160h-96c-17.672 0-32-14.328-32-32v-832c0-17.674 14.328-32 32-32h832c17.674 0 32 14.326 32 32v832c0 17.672-14.326 32-32 32z" />
<glyph unicode="&#xec54;" glyph-name="clipboard4" data-tags="clipboard, board, signup, register, agreement" d="M256 704h512v128h-128c0 70.692-57.306 128-128 128-70.692 0-128-57.308-128-128h-128v-128zM512 896c35.346 0 64-28.654 64-64s-28.654-64-64-64c-35.346 0-64 28.654-64 64s28.654 64 64 64zM928 832h-96v-160c0-17.672-14.326-32-32-32h-576c-17.672 0-32 14.328-32 32v160h-96c-17.672 0-32-14.328-32-32v-832c0-17.674 14.328-32 32-32h832c17.674 0 32 14.326 32 32v832c0 17.672-14.326 32-32 32zM448 37.49l-205.254 237.254 58.508 58.51 146.746-114.744 274.742 242.744 58.514-58.508-333.256-365.256z" />
<glyph unicode="&#xec55;" glyph-name="clipboard5" data-tags="clipboard, board, list" d="M256 704h512v128h-128c0 70.692-57.306 128-128 128-70.692 0-128-57.308-128-128h-128v-128zM512 896c35.346 0 64-28.654 64-64s-28.654-64-64-64c-35.346 0-64 28.654-64 64s28.654 64 64 64zM928 832h-96v-160c0-17.672-14.326-32-32-32h-576c-17.672 0-32 14.328-32 32v160h-96c-17.672 0-32-14.328-32-32v-832c0-17.674 14.328-32 32-32h832c17.674 0 32 14.326 32 32v832c0 17.672-14.326 32-32 32zM736 128h-448c-17.672 0-32 14.326-32 32s14.328 32 32 32h448c17.674 0 32-14.326 32-32s-14.326-32-32-32zM736 256h-448c-17.672 0-32 14.326-32 32s14.328 32 32 32h448c17.674 0 32-14.326 32-32s-14.326-32-32-32zM736 384h-448c-17.672 0-32 14.328-32 32s14.328 32 32 32h448c17.674 0 32-14.328 32-32s-14.326-32-32-32z" />
<glyph unicode="&#xec5b;" glyph-name="more" data-tags="more, dots, menu" d="M384 896h256v-256h-256zM384 576h256v-256h-256zM384 256h256v-256h-256z" />
<glyph unicode="&#xec5c;" glyph-name="more1" data-tags="more, dots, menu" d="M384 768c0 70.692 57.308 128 128 128s128-57.308 128-128c0-70.692-57.308-128-128-128s-128 57.308-128 128zM384 448c0 70.692 57.308 128 128 128s128-57.308 128-128c0-70.692-57.308-128-128-128s-128 57.308-128 128zM384 128c0 70.692 57.308 128 128 128s128-57.308 128-128c0-70.692-57.308-128-128-128s-128 57.308-128 128z" />
<glyph unicode="&#xec6a;" glyph-name="menu" data-tags="menu, dots, more" d="M832 512c70.692 0 128-57.308 128-128s-57.308-128-128-128c-70.692 0-128 57.308-128 128s57.308 128 128 128zM512 512c70.692 0 128-57.308 128-128s-57.308-128-128-128c-70.692 0-128 57.308-128 128s57.308 128 128 128zM192 512c70.692 0 128-57.308 128-128s-57.308-128-128-128c-70.692 0-128 57.308-128 128s57.308 128 128 128z" />
<glyph unicode="&#xec6d;" glyph-name="menu1" data-tags="menu, list, options, lines, hamburger" d="M64 768h896v-192h-896zM64 512h896v-192h-896zM64 256h896v-192h-896z" />
<glyph unicode="&#xec71;" glyph-name="menu2" data-tags="menu, list, options, lines, hamburger" d="M64 768h896v-128h-896v128zM64 512h896v-128h-896v128zM64 256h896v-128h-896v128z" />
<glyph unicode="&#xeca6;" glyph-name="flag" data-tags="flag, report, mark" d="M0 960h128v-1024h-128v1024zM640 896c-32 0-48 16-64 32s-32 32-64 32h-320v-640h320c32 0 48-16 64-32s32-32 64-32h320v640h-320z" />
<glyph unicode="&#xeca7;" glyph-name="flag1" data-tags="flag, report, mark" d="M0 960h128v-1024h-128v1024zM640 896c-32 0-48 16-64 32s-32 32-64 32h-320v-640h320c32 0 48-16 64-32s32-32 64-32h320v640h-320zM256 384v512h256c4.97 0 5.49 0 18.746-13.254 3.594-3.594 7.648-7.648 12.254-11.856v-490.134c-9.406 2.048-19.7 3.244-31 3.244h-256zM896 320h-256c-4.97 0-5.49 0-18.746 13.254-10.438 10.44-24.758 24.736-45.254 35.5v478.494c16.77-8.806 37.67-15.248 64-15.248h256v-512z" />
<glyph unicode="&#xeca8;" glyph-name="flag2" data-tags="flag, report, mark" d="M508.118 837.954c-96.356 114.5-169.38 122.046-316.118 122.046v-512c256.534 128 285.272-16.67 447.012-2.046 159.456 14.44 295.050 137.174 384.988 258.046-254.712-58.906-382.92-24.046-515.882 133.954zM0 960h128v-1024h-128z" />
<glyph unicode="&#xeca9;" glyph-name="flag3" data-tags="flag, report, mark" d="M256 895c38.786-1.572 67.372-5.362 92.73-13.806 38.326-12.762 71.348-38.018 110.418-84.448 108.33-128.728 217.85-183.652 366.214-183.652 15.458 0 31.534 0.614 48.294 1.85-20.18-23.744-41.41-46.932-63.458-68.118-30.906-29.698-60.998-53.042-89.44-69.384-29.98-17.224-59.094-27.218-86.526-29.702-3.62-0.328-7.066-0.486-10.542-0.486-33.64 0-59.492 15.634-98.884 41.146-45.148 29.236-101.336 65.624-183.092 65.624-27.384 0-55.812-4.068-85.718-12.322v353.298zM192 960v-512c61.174 30.524 109.474 42.022 149.718 42.022 122.682 0 170.734-106.768 281.976-106.768 5.296 0 10.708 0.24 16.304 0.746 159.458 14.442 294.062 199.128 384 320-76.41-17.67-141.452-26.906-198.636-26.906-133.44 0-224.17 50.258-317.246 160.86-96.354 114.5-169.378 122.046-316.116 122.046v0zM0 960h128v-1024h-128z" />
<glyph unicode="&#xecaa;" glyph-name="flag4" data-tags="flag, report, mark" d="M0 960h128v-1024h-128v1024zM192 896v-512h800l-256 256 256 256z" />
<glyph unicode="&#xecab;" glyph-name="flag5" data-tags="flag, report, mark" d="M0 960h128v-1024h-128v1024zM928.784 384c-0.012 0.002-0.030 0.002-0.040 0h-704.744c-17.672 0-32 14.326-32 32v448c0 17.672 14.328 32 32 32h704.744c12.944 0 24.612-7.796 29.564-19.754 4.954-11.958 2.214-25.722-6.938-34.874l-201.37-201.372 200.438-200.438c6.36-5.85 10.346-14.24 10.346-23.562 0-17.674-14.326-32-32-32zM256 448h595.49l-169.372 169.374c-12.498 12.496-12.498 32.758 0 45.254l169.372 169.372h-595.49v-384z" />
<glyph unicode="&#xecb7;" glyph-name="bookmark" data-tags="bookmark, ribbon" d="M192 960v-1024l320 320 320-320v1024z" />
<glyph unicode="&#xecb8;" glyph-name="bookmark1" data-tags="bookmark, ribbon" d="M192 960v-1024l320 320 320-320v1024h-640zM768 90.51l-256 256-256-256v805.49h512v-805.49z" />
<glyph unicode="&#xed1d;" glyph-name="hipster" data-tags="hipster, emoticon, smiley, mustache, face" d="M512 960c-282.77 0-512-229.23-512-512s229.23-512 512-512 512 229.23 512 512-229.23 512-512 512zM704 704c35.346 0 64-28.654 64-64s-28.654-64-64-64-64 28.654-64 64 28.654 64 64 64zM320 704c35.346 0 64-28.654 64-64s-28.654-64-64-64-64 28.654-64 64 28.654 64 64 64zM543.8 280.624c-1.25 1.124-2.48 2.29-3.684 3.492-18.74 18.74-28.112 43.3-28.118 67.864-0.004-24.562-9.376-49.124-28.118-67.864-1.204-1.204-2.434-2.368-3.684-3.492-86.524-78.512-288.196 1.842-288.196 103.376 62-40 110.45-9.786 156.118 35.882 37.49 37.49 98.276 37.49 135.766 0 18.74-18.74 28.112-43.3 28.118-67.864 0.004 24.562 9.376 49.124 28.118 67.864 37.49 37.49 98.276 37.49 135.766 0 45.664-45.668 94.114-75.882 156.114-35.882 0-101.534-201.672-181.888-288.2-103.376z" />
<glyph unicode="&#xed4f;" glyph-name="warning" data-tags="warning, sign" d="M512 867.226l429.102-855.226h-858.206l429.104 855.226zM512 960c-22.070 0-44.14-14.882-60.884-44.648l-437.074-871.112c-33.486-59.532-5-108.24 63.304-108.24h869.308c68.3 0 96.792 48.708 63.3 108.24h0.002l-437.074 871.112c-16.742 29.766-38.812 44.648-60.882 44.648v0zM576 128c0-35.346-28.654-64-64-64s-64 28.654-64 64c0 35.346 28.654 64 64 64s64-28.654 64-64zM512 256c-35.346 0-64 28.654-64 64v192c0 35.346 28.654 64 64 64s64-28.654 64-64v-192c0-35.346-28.654-64-64-64z" />
<glyph unicode="&#xed50;" glyph-name="warning1" data-tags="warning, sign" d="M1009.956 44.24v0l-437.074 871.112c-16.742 29.766-38.812 44.648-60.882 44.648s-44.14-14.882-60.884-44.648l-437.074-871.112c-33.486-59.532-5-108.24 63.304-108.24h869.308c68.302 0 96.792 48.708 63.302 108.24zM512 64c-35.346 0-64 28.654-64 64s28.654 64 64 64c35.348 0 64-28.652 64-64s-28.652-64-64-64zM576 320c0-35.346-28.654-64-64-64s-64 28.654-64 64v192c0 35.346 28.654 64 64 64s64-28.654 64-64v-192z" />
<glyph unicode="&#xed51;" glyph-name="notification" data-tags="notification, warning, notice, note, exclamation" d="M512 864c-111.118 0-215.584-43.272-294.156-121.844s-121.844-183.038-121.844-294.156c0-111.118 43.272-215.584 121.844-294.156s183.038-121.844 294.156-121.844c111.118 0 215.584 43.272 294.156 121.844s121.844 183.038 121.844 294.156c0 111.118-43.272 215.584-121.844 294.156s-183.038 121.844-294.156 121.844zM512 960v0c282.77 0 512-229.23 512-512s-229.23-512-512-512c-282.77 0-512 229.23-512 512s229.23 512 512 512zM448 256h128v-128h-128zM448 768h128v-384h-128z" />
<glyph unicode="&#xed52;" glyph-name="notification1" data-tags="notification, warning, notice, note, exclamation" d="M512 960c-282.77 0-512-229.23-512-512s229.23-512 512-512 512 229.23 512 512-229.23 512-512 512zM576 128h-128v128h128v-128zM576 384h-128v384h128v-384z" />
<glyph unicode="&#xed53;" glyph-name="question" data-tags="question, help, support" d="M448 256h128v-128h-128zM704 704c35.346 0 64-28.654 64-64v-192l-192-128h-128v64l192 128v64h-320v128h384zM512 864c-111.118 0-215.584-43.272-294.156-121.844s-121.844-183.038-121.844-294.156c0-111.118 43.272-215.584 121.844-294.156s183.038-121.844 294.156-121.844c111.118 0 215.584 43.272 294.156 121.844s121.844 183.038 121.844 294.156c0 111.118-43.272 215.584-121.844 294.156s-183.038 121.844-294.156 121.844zM512 960v0c282.77 0 512-229.23 512-512s-229.23-512-512-512c-282.77 0-512 229.23-512 512s229.23 512 512 512z" />
<glyph unicode="&#xed54;" glyph-name="question1" data-tags="question, help, support" d="M512 960c-282.77 0-512-229.23-512-512s229.226-512 512-512c282.77 0 512 229.23 512 512s-229.23 512-512 512zM576 128h-128v128h128v-128zM768 448l-192-128h-128v64l192 128v64h-320v128h384c35.346 0 64-28.654 64-64v-192z" />
<glyph unicode="&#xed55;" glyph-name="question2" data-tags="question, help, support" d="M576 192c0-35.346-28.654-64-64-64s-64 28.654-64 64 28.654 64 64 64 64-28.654 64-64zM512 960c-282.77 0-512-229.23-512-512s229.23-512 512-512 512 229.23 512 512-229.23 512-512 512zM512 32c-229.75 0-416 186.25-416 416s186.25 416 416 416 416-186.25 416-416-186.25-416-416-416zM512 319.75c-26.51 0-48 21.49-48 48v32c0 33.618 12.964 63.854 38.532 89.87 18.864 19.194 41.778 33.59 63.936 47.512 45.564 28.624 65.532 43.978 65.532 70.868 0 29.252-16.88 48.788-31.042 60.026-22.734 18.040-54.328 27.974-88.958 27.974-52.534 0-99.792-35.082-114.924-85.314-7.648-25.382-34.422-39.758-59.806-32.114-25.382 7.648-39.76 34.422-32.114 59.806 13.112 43.52 40.398 82.63 76.832 110.124 37.71 28.456 82.668 43.498 130.012 43.498 56.208 0 108.994-17.322 148.63-48.776 43.444-34.474 67.37-82.496 67.37-135.224 0-82.76-63.846-122.872-110.462-152.158-39.112-24.57-57.538-38.114-57.538-56.092v-32c0-26.51-21.49-48-48-48z" />
<glyph unicode="&#xed56;" glyph-name="question3" data-tags="question, help, support" d="M512 960c-282.77 0-512-229.23-512-512s229.23-512 512-512 512 229.23 512 512-229.23 512-512 512zM512 128c-35.346 0-64 28.654-64 64s28.654 64 64 64 64-28.654 64-64-28.654-64-64-64zM617.538 455.842c-39.112-24.57-57.538-38.114-57.538-56.092v-32c0-26.51-21.49-48-48-48s-48 21.49-48 48v32c0 33.618 12.964 63.854 38.532 89.87 18.864 19.194 41.778 33.59 63.936 47.512 45.564 28.624 65.532 43.978 65.532 70.868 0 29.252-16.88 48.788-31.042 60.026-22.734 18.040-54.328 27.974-88.958 27.974-52.534 0-99.792-35.082-114.924-85.314-7.648-25.382-34.422-39.758-59.806-32.114-25.382 7.648-39.76 34.422-32.114 59.806 13.112 43.52 40.398 82.63 76.832 110.124 37.71 28.456 82.668 43.498 130.012 43.498 56.208 0 108.994-17.322 148.63-48.776 43.444-34.474 67.37-82.496 67.37-135.224 0-82.76-63.846-122.872-110.462-152.158z" />
<glyph unicode="&#xed5d;" glyph-name="plus" data-tags="plus, add, sum" d="M960 512h-384v384h-128v-384h-384v-128h384v-384h128v384h384z" />
<glyph unicode="&#xed5e;" glyph-name="minus" data-tags="minus, subtract, line" d="M64 512h896v-128h-896v128z" />
<glyph unicode="&#xed5f;" glyph-name="plus-circle" data-tags="plus-circle, add, sum" d="M512 960c-282.77 0-512-229.23-512-512s229.23-512 512-512 512 229.23 512 512-229.23 512-512 512zM512 64c-212.078 0-384 171.922-384 384s171.922 384 384 384c212.078 0 384-171.922 384-384s-171.922-384-384-384zM768 384h-192v-192h-128v192h-192v128h192v192h128v-192h192z" />
<glyph unicode="&#xed60;" glyph-name="minus-circle" data-tags="minus-circle, remove, subtract" d="M512 960c-282.77 0-512-229.23-512-512s229.23-512 512-512 512 229.23 512 512-229.23 512-512 512zM512 64c-212.078 0-384 171.922-384 384s171.922 384 384 384c212.078 0 384-171.922 384-384s-171.922-384-384-384zM256 512h512v-128h-512z" />
<glyph unicode="&#xed63;" glyph-name="info" data-tags="info, information" d="M448 656c0 26.4 21.6 48 48 48h32c26.4 0 48-21.6 48-48v-32c0-26.4-21.6-48-48-48h-32c-26.4 0-48 21.6-48 48v32zM640 192h-256v64h64v192h-64v64h192v-256h64zM512 960c-282.77 0-512-229.23-512-512s229.23-512 512-512 512 229.23 512 512-229.23 512-512 512zM512 32c-229.75 0-416 186.25-416 416s186.25 416 416 416 416-186.25 416-416-186.25-416-416-416z" />
<glyph unicode="&#xed64;" glyph-name="info1" data-tags="info, information" d="M512 960c-282.77 0-512-229.23-512-512s229.23-512 512-512 512 229.23 512 512-229.23 512-512 512zM448 720c0 26.4 21.6 48 48 48h32c26.4 0 48-21.6 48-48v-32c0-26.4-21.6-48-48-48h-32c-26.4 0-48 21.6-48 48v32zM640 128h-256v64h64v256h-64v64h192v-320h64v-64z" />
<glyph unicode="&#xed6b;" glyph-name="spam" data-tags="spam, notice, notification, exclamation" d="M1024 224l-288 736h-448l-288-288v-448l288-288h448l288 288v448l-288 288zM576 128h-128v128h128v-128zM576 384h-128v384h128v-384z" />
<glyph unicode="&#xed6e;" glyph-name="cross" data-tags="cross, cancel, close, quit, remove" d="M781.256 269.256l-90.512-90.512-178.744 178.746-178.746-178.744-90.51 90.51 178.746 178.744-178.744 178.746 90.508 90.508 178.746-178.744 178.744 178.746 90.512-90.51-178.746-178.746 178.746-178.744z" />
<glyph unicode="&#xeda8;" glyph-name="loop1" data-tags="loop, repeat, player" d="M128 640h640v-192l256 256-256 256v-192h-768v-384h128zM896 256h-640v192l-256-256 256-256v192h768v384h-128z" />
<glyph unicode="&#xedaa;" glyph-name="loop3" data-tags="loop, repeat, player, reload, refresh, update, synchronize, arrows" d="M889.68 793.68c-93.608 102.216-228.154 166.32-377.68 166.32-282.77 0-512-229.23-512-512h96c0 229.75 186.25 416 416 416 123.020 0 233.542-53.418 309.696-138.306l-149.696-149.694h352v352l-134.32-134.32zM928 448c0-229.75-186.25-416-416-416-123.020 0-233.542 53.418-309.694 138.306l149.694 149.694h-352v-352l134.32 134.32c93.608-102.216 228.154-166.32 377.68-166.32 282.77 0 512 229.23 512 512h-96z" />
<glyph unicode="&#xedae;" glyph-name="loop4" data-tags="loop, repeat, player" d="M320 320v192h192l-256 256-256-256h192v-320h384l-128 128zM832 384v320h-384l128-128h128v-192h-192l256-256 256 256z" />
<glyph unicode="&#xedb7;" glyph-name="arrow-up4" data-tags="arrow-up, up, top" d="M0 288l192-192 320 320 320-320 192 192-511.998 512z" />
<glyph unicode="&#xedb8;" glyph-name="arrow-up5" data-tags="arrow-up, up, top" d="M0 288l128-128 384 384 384-384 128 128-511.998 512-512.002-512z" />
<glyph unicode="&#xedb9;" glyph-name="arrow-up" data-tags="arrow-up, up, top" d="M0 288l96-96 416 416 416-416 96 96-511.998 512-512.002-512z" />
<glyph unicode="&#xedbc;" glyph-name="arrow-right8" data-tags="arrow-right, right, next" d="M352 960l-128-128 384-384-384-384 128-128 512 511.998-512 512.002z" />
<glyph unicode="&#xedbd;" glyph-name="arrow-right" data-tags="arrow-right, right, next" d="M352 960l-96-96 416-416-416-416 96-96 512 511.998-512 512.002z" />
<glyph unicode="&#xedbf;" glyph-name="arrow-down1" data-tags="arrow-down, down, buttom" d="M1024 608l-192 192-320-320-320 320-192-192 512-511.998z" />
<glyph unicode="&#xedc0;" glyph-name="arrow-down2" data-tags="arrow-down, down, buttom" d="M1024 608l-128 128-384-384-384 384-128-128 511.998-512 512.002 512z" />
<glyph unicode="&#xedc1;" glyph-name="arrow-down5" data-tags="arrow-down, down, buttom" d="M1024 608l-96 96-416-416-416 416-96-96 511.998-512 512.002 512z" />
<glyph unicode="&#xedc3;" glyph-name="arrow-left7" data-tags="arrow-left, left, previous" d="M672-64l192 192-320 320 320 320-192 192-512-512z" />
<glyph unicode="&#xedc4;" glyph-name="arrow-left8" data-tags="arrow-left, left, previous" d="M672-64l128 128-384 384 384 384-128 128-512-511.998 512-512.002z" />
<glyph unicode="&#xedc5;" glyph-name="arrow-left" data-tags="arrow-left, left, previous" d="M672-64l96 96-416 416 416 416-96 96-512-511.998 512-512.002z" />
<glyph unicode="&#xedc7;" glyph-name="arrow-up3" data-tags="arrow-up, up, upload, top" d="M800 320l-288 288-288-288h576z" />
<glyph unicode="&#xedc8;" glyph-name="arrow-right5" data-tags="arrow-right, right, next" d="M384 160l288 288-288 288v-576z" />
<glyph unicode="&#xedc9;" glyph-name="arrow-down" data-tags="arrow-down, down, download, bottom" d="M224 576l288-288 288 288h-576z" />
<glyph unicode="&#xedca;" glyph-name="arrow-left5" data-tags="arrow-left, left, previous" d="M640 736l-288-288 288-288v576z" />
<glyph unicode="&#xedce;" glyph-name="arrow-right1" data-tags="arrow-right, right, next" d="M992 448l-480 480v-288h-512v-384h512v-288z" />
<glyph unicode="&#xedd2;" glyph-name="arrow-left1" data-tags="arrow-left, left, previous" d="M32 448l480-480v288h512v384h-512v288z" />
<glyph unicode="&#xede7;" glyph-name="circle-up" data-tags="circle-up, up, circle-top, arrow" d="M0 448c0-282.77 229.23-512 512-512s512 229.23 512 512-229.23 512-512 512-512-229.23-512-512zM928 448c0-229.75-186.25-416-416-416s-416 186.25-416 416 186.25 416 416 416 416-186.25 416-416zM706.744 290.744l90.512 90.512-285.256 285.254-285.254-285.256 90.508-90.508 194.746 194.744z" />
<glyph unicode="&#xede8;" glyph-name="circle-right" data-tags="circle-right, right, circle-next, arrow" d="M512 960c-282.77 0-512-229.23-512-512s229.23-512 512-512 512 229.23 512 512-229.23 512-512 512zM512 32c-229.75 0-416 186.25-416 416s186.25 416 416 416 416-186.25 416-416-186.25-416-416-416zM354.744 253.256l90.512-90.512 285.254 285.256-285.256 285.254-90.508-90.508 194.744-194.746z" />
<glyph unicode="&#xedea;" glyph-name="circle-left" data-tags="circle-left, left, circle-previous, arrow" d="M512-64c282.77 0 512 229.23 512 512s-229.23 512-512 512-512-229.23-512-512 229.23-512 512-512zM512 864c229.75 0 416-186.25 416-416s-186.25-416-416-416-416 186.25-416 416 186.25 416 416 416zM669.256 642.744l-90.512 90.512-285.254-285.256 285.256-285.254 90.508 90.508-194.744 194.746z" />
<glyph unicode="&#xedec;" glyph-name="circle-up1" data-tags="circle-up, up, circle-top, arrow" d="M0 448c0-282.77 229.23-512 512-512s512 229.23 512 512-229.23 512-512 512-512-229.23-512-512zM928 448c0-229.75-186.25-416-416-416s-416 186.25-416 416 186.25 416 416 416 416-186.25 416-416zM768 480l-256 256-256-256 96-96 96 96v-288h128v288l96-96z" />
<glyph unicode="&#xedee;" glyph-name="circle-right1" data-tags="circle-right, right, circle-next, arrow" d="M512 960c-282.77 0-512-229.23-512-512s229.23-512 512-512 512 229.23 512 512-229.23 512-512 512zM512 32c-229.75 0-416 186.25-416 416s186.25 416 416 416 416-186.25 416-416-186.25-416-416-416zM544 192l256 256-256 256-96-96 96-96h-288v-128h288l-96-96z" />
<glyph unicode="&#xedf2;" glyph-name="circle-left1" data-tags="circle-left, left, circle-previous, arrow" d="M512-64c282.77 0 512 229.23 512 512s-229.23 512-512 512c-282.77 0-512-229.23-512-512s229.23-512 512-512zM512 864c229.75 0 416-186.25 416-416s-186.25-416-416-416c-229.75 0-416 186.25-416 416s186.25 416 416 416zM480 704l-256-256 256-256 96 96-96 96h288v128h-288l96 96z" />
<glyph unicode="&#xedf4;" glyph-name="circle-up2" data-tags="circle-up, up, circle-top, arrow" d="M1024 448c0 282.77-229.23 512-512 512s-512-229.23-512-512 229.23-512 512-512 512 229.23 512 512zM448 128v351.998l-128-127.998-96 95.998 288 288 288-288-96-95.998-128 127.998v-351.998h-128z" />
<glyph unicode="&#xedf6;" glyph-name="circle-right2" data-tags="circle-right, right, circle-next, arrow" d="M512-64c282.77 0 512 229.23 512 512s-229.23 512-512 512-512-229.23-512-512 229.23-512 512-512zM192 512h351.998l-127.998 128 95.998 96 288.002-288-288.002-288-95.998 96 127.998 128h-351.998v128z" />
<glyph unicode="&#xedfa;" glyph-name="circle-left2" data-tags="circle-left, left, circle-previous, arrow" d="M512 960c-282.77 0-512-229.23-512-512s229.23-512 512-512 512 229.23 512 512-229.23 512-512 512zM832 384h-351.998l127.998-128-95.998-96-288.002 288 288.002 288 95.998-96-127.998-128h351.998v-128z" />
<glyph unicode="&#xee04;" glyph-name="square-up" data-tags="square-up, up, circle-top, arrow" d="M0 959.998v-1023.998h1024v1024l-1024-0.002zM896 64h-768v767.998l768 0.002v-768zM224 448l288 288 288-288h-224v-320h-128v320z" />
<glyph unicode="&#xee06;" glyph-name="square-right" data-tags="square-right, right, circle-next, arrow" d="M1023.998 960h-1023.998v-1024h1024l-0.002 1024zM128 64v768h767.998l0.002-768h-768zM512 736l288-288-288-288v224h-320v128h320z" />
<glyph unicode="&#xee0a;" glyph-name="square-left" data-tags="square-left, left, circle-previous, arrow" d="M0.002-64h1023.998v1024h-1024l0.002-1024zM896 832v-768h-767.998l-0.002 768h768zM512 160l-288 288 288 288v-224h320v-128h-320z" />
<glyph unicode="&#xee0c;" glyph-name="arrow-right2" data-tags="arrow-right, right, next" d="M1024 447.998l-512 512.002v-320h-511.998l-0.002-384h512v-320l512 511.998zM576 320h-512l0.002 256h511.998v229.49l357.49-357.492-357.49-357.488v229.49z" />
<glyph unicode="&#xee0e;" glyph-name="arrow-left2" data-tags="arrow-left, left, previous" d="M0 448.002l512-512.002v320h511.998l0.002 384h-512v320l-512-511.998zM448 576h512l-0.002-256h-511.998v-229.49l-357.49 357.492 357.49 357.488v-229.49z" />
<glyph unicode="&#xee14;" glyph-name="arrow-up1" data-tags="arrow-up, up, upload, top" d="M480 960l-384-384h256l96-640h64l96 640h256z" />
<glyph unicode="&#xee16;" glyph-name="arrow-right3" data-tags="arrow-right, right, next" d="M1024 416l-384 384v-256l-640-96v-64l640-96v-256z" />
<glyph unicode="&#xee1a;" glyph-name="arrow-left3" data-tags="arrow-left, left, previous" d="M0 416l384 384v-256l640-96v-64l-640-96v-256z" />
<glyph unicode="&#xee28;" glyph-name="arrow-right6" data-tags="arrow-right, right, arrow-next" d="M1024 448l-1024 448 192-448-192-448z" />
<glyph unicode="&#xee29;" glyph-name="arrow-down3" data-tags="arrow-down, down, arrow-bottom, download" d="M512-64l448 1024-448-192-448 192z" />
<glyph unicode="&#xee2b;" glyph-name="circle-up3" data-tags="circle-up, up, circle-top, arrow, upload" d="M0 448c0-282.77 229.23-512 512-512s512 229.23 512 512-229.23 512-512 512-512-229.23-512-512zM736 512h-160v-320h-128v320h-160l224 224 224-224z" />
<glyph unicode="&#xee2c;" glyph-name="circle-right3" data-tags="circle-right, right, circle-next, arrow" d="M512 960c-282.77 0-512-229.23-512-512s229.23-512 512-512 512 229.23 512 512-229.23 512-512 512zM576 224v160h-320v128h320v160l224-224-224-224z" />
<glyph unicode="&#xee2e;" glyph-name="circle-left3" data-tags="circle-left, left, circle-previous, arrow" d="M512 960c282.77 0 512-229.23 512-512s-229.23-512-512-512-512 229.23-512 512 229.23 512 512 512zM448 224v160h320v128h-320v160l-224-224 224-224z" />
<glyph unicode="&#xee2f;" glyph-name="circle-up4" data-tags="circle-up, up, circle-top, arrow, upload" d="M0 448c0-282.77 229.23-512 512-512s512 229.23 512 512-229.23 512-512 512-512-229.23-512-512zM896 448c0-212.078-171.922-384-384-384s-384 171.922-384 384c0 212.078 171.922 384 384 384s384-171.922 384-384zM736 512h-160v-320h-128v320h-160l224 224z" />
<glyph unicode="&#xee30;" glyph-name="circle-right4" data-tags="circle-right, right, circle-next, arrow" d="M512 960c-282.77 0-512-229.23-512-512s229.23-512 512-512 512 229.23 512 512-229.23 512-512 512zM512 64c-212.078 0-384 171.922-384 384s171.922 384 384 384c212.078 0 384-171.922 384-384s-171.922-384-384-384zM576 224v160h-320v128h320v160l224-224z" />
<glyph unicode="&#xee32;" glyph-name="circle-left4" data-tags="circle-left, left, circle-previous, arrow" d="M512 960c282.77 0 512-229.23 512-512s-229.23-512-512-512-512 229.23-512 512 229.23 512 512 512zM512 64c212.078 0 384 171.922 384 384s-171.922 384-384 384c-212.078 0-384-171.922-384-384s171.922-384 384-384zM448 224v160h320v128h-320v160l-224-224z" />
<glyph unicode="&#xee33;" glyph-name="arrow-up6" data-tags="arrow-up, up, arrow-top, upload" d="M1024 192l-512 512-512-512 512 256z" />
<glyph unicode="&#xee34;" glyph-name="arrow-right7" data-tags="arrow-right, right, arrow-next" d="M256-64l512 512-512 512 256-512z" />
<glyph unicode="&#xee35;" glyph-name="arrow-down4" data-tags="arrow-down, down, arrow-bottom, download" d="M0 704l512-512 512 512-512-256z" />
<glyph unicode="&#xee36;" glyph-name="arrow-left6" data-tags="arrow-left, left, arrow-previous" d="M768 960l-512-512 512-512-255.998 512z" />
<glyph unicode="&#xee37;" glyph-name="arrow-up2" data-tags="arrow-up, up, arrow-top, upload" d="M320 0h384v-64h-384zM320 128h384v-64h-384zM320 256h384v-64h-384zM512 960l448-448h-256v-192h-384v192h-256z" />
<glyph unicode="&#xee38;" glyph-name="arrow-right4" data-tags="arrow-right, right, arrow-next" d="M0 640h64v-384h-64zM128 640h64v-384h-64zM256 640h64v-384h-64zM1024 448l-448 448v-256h-192v-384h192v-256z" />
<glyph unicode="&#xee3a;" glyph-name="arrow-left4" data-tags="arrow-left, left, arrow-previous" d="M960 640h64v-384h-64zM832 640h64v-384h-64zM704 640h64v-384h-64zM0 448l448 448v-256h192v-384h-192v-256z" />
<glyph unicode="&#xee64;" glyph-name="ctrl" data-tags="ctrl, control" d="M736.014 512c-8.908 0-17.77 3.698-24.096 10.928l-199.918 228.478-199.918-228.478c-11.636-13.3-31.856-14.65-45.154-3.010-13.3 11.638-14.648 31.854-3.010 45.154l224 256c6.076 6.944 14.854 10.928 24.082 10.928s18.006-3.984 24.082-10.928l224-256c11.638-13.3 10.292-33.516-3.010-45.154-6.070-5.312-13.582-7.918-21.058-7.918z" />
<glyph unicode="&#xee6a;" glyph-name="triangle" data-tags="triangle" d="M512 694.808l345.722-598.808h-691.444l345.722 598.808zM512 886.808l-512-886.808h1024l-512 886.808z" />
<glyph unicode="&#xee6b;" glyph-name="triangle1" data-tags="triangle" d="M512 886.808l-512-886.808h1024z" />
<glyph unicode="&#xee74;" glyph-name="toggle-on" data-tags="toggle-on" d="M672 704h-320c-194.404 0-352-157.596-352-352s157.596-352 352-352h320c194.404 0 352 157.596 352 352s-157.596 352-352 352zM672 192c-88.366 0-160 71.632-160 160 0 88.366 71.634 160 160 160s160-71.634 160-160c0-88.368-71.634-160-160-160z" />
<glyph unicode="&#xee75;" glyph-name="toggle-off" data-tags="toggle-off" d="M672 576c59.832 0 116.084-23.3 158.392-65.608s65.608-98.56 65.608-158.392-23.3-116.084-65.608-158.392c-42.308-42.308-98.56-65.608-158.392-65.608h-320c-59.832 0-116.084 23.3-158.392 65.608s-65.608 98.56-65.608 158.392 23.3 116.084 65.608 158.392c42.308 42.308 98.56 65.608 158.392 65.608h320zM672 704h-320c-194.404 0-352-157.596-352-352s157.596-352 352-352h320c194.404 0 352 157.596 352 352s-157.596 352-352 352v0zM512 352c0-88.366-71.634-160-160-160s-160 71.634-160 160c0 88.366 71.634 160 160 160s160-71.634 160-160z" />
<glyph unicode="&#xeebe;" glyph-name="paragraph-justify" data-tags="paragraph-justify, wysiwyg, justify" d="M0 896h1024v-128h-1024zM0 704h1024v-128h-1024zM0 512h1024v-128h-1024zM0 320h1024v-128h-1024zM0 128h1024v-128h-1024z" />
<glyph unicode="&#xeec4;" glyph-name="paragraph-justify1" data-tags="paragraph-justify, wysiwyg, justify" d="M0 896h1024v-128h-1024zM0 384h1024v-128h-1024zM0 640h1024v-128h-1024zM0 128h1024v-128h-1024z" />
<glyph unicode="&#xeee2;" glyph-name="mail" data-tags="mail, contact, support, newsletter, letter, email, envelop, social" d="M853.31 960h-682.62c-93.88 0-170.69-76.784-170.69-170.658v-682.656c0-93.876 76.81-170.686 170.69-170.686h682.622c93.938 0 170.688 76.81 170.688 170.686v682.656c0 93.874-76.75 170.658-170.69 170.658zM256 704h512c9.138 0 18.004-1.962 26.144-5.662l-282.144-329.168-282.144 329.17c8.14 3.696 17.006 5.66 26.144 5.66zM192 256v384c0 1.34 0.056 2.672 0.14 4l187.664-218.94-185.598-185.6c-1.444 5.338-2.206 10.886-2.206 16.54zM768 192h-512c-5.654 0-11.202 0.762-16.54 2.206l182.118 182.118 90.422-105.496 90.424 105.494 182.116-182.118c-5.34-1.442-10.886-2.204-16.54-2.204zM832 256c0-5.654-0.762-11.2-2.206-16.54l-185.598 185.598 187.664 218.942c0.084-1.328 0.14-2.66 0.14-4v-384z" />
<glyph unicode="&#xeee3;" glyph-name="mail1" data-tags="mail, contact, support, newsletter, letter, email, envelop, social" d="M853.342 960h-682.656c-93.874 0-170.686-76.81-170.686-170.69v-682.622c0-93.938 76.812-170.688 170.686-170.688h682.656c93.876 0 170.658 76.75 170.658 170.69v682.62c0 93.88-76.782 170.69-170.658 170.69zM853.342 832c7.988 0 15.546-2.334 22.020-6.342l-363.362-300.404-363.354 300.4c6.478 4.010 14.044 6.346 22.040 6.346h682.656zM170.686 64c-1.924 0-3.82 0.146-5.684 0.408l225.626 312.966-29.256 29.254-233.372-233.37v611.138l384-464.396 384 464.394v-611.136l-233.372 233.37-29.254-29.254 225.628-312.968c-1.858-0.26-3.746-0.406-5.662-0.406h-682.654z" />
<glyph unicode="&#xeee4;" glyph-name="mail2" data-tags="mail, contact, support, newsletter, letter, email, envelop, social" d="M853.342 960h-682.656c-93.874 0-170.686-76.81-170.686-170.69v-682.622c0-93.938 76.812-170.688 170.686-170.688h682.656c93.876 0 170.658 76.75 170.658 170.69v682.62c0 93.88-76.782 170.69-170.658 170.69zM182.628 73.374l-77.256 77.254 256 256 29.256-29.254-208-304zM153.372 761.372l29.256 29.256 329.372-265.374 329.374 265.374 29.254-29.256-358.628-422.626-358.628 422.626zM841.374 73.374l-208 304 29.254 29.254 256-256-77.254-77.254z" />
<glyph unicode="&#xeee5;" glyph-name="mail3" data-tags="mail, contact, support, newsletter, letter, email, envelop, social" d="M512 960c-282.77 0-512-229.23-512-512s229.23-512 512-512 512 229.23 512 512-229.23 512-512 512zM256 704h512c9.138 0 18.004-1.962 26.144-5.662l-282.144-329.168-282.144 329.17c8.14 3.696 17.006 5.66 26.144 5.66zM192 256v384c0 1.34 0.056 2.672 0.14 4l187.664-218.942-185.598-185.598c-1.444 5.336-2.206 10.886-2.206 16.54zM768 192h-512c-5.654 0-11.202 0.762-16.54 2.208l182.118 182.118 90.422-105.498 90.424 105.494 182.116-182.12c-5.34-1.44-10.886-2.202-16.54-2.202zM832 256c0-5.654-0.762-11.2-2.206-16.54l-185.6 185.598 187.666 218.942c0.084-1.328 0.14-2.66 0.14-4v-384z" />
</font>
</defs>
</svg>
